<?xml version="1.0" standalone="no"?>
<!DOCTYPE svg PUBLIC "-//W3C//DTD SVG 1.1//EN" "http://www.w3.org/Graphics/SVG/1.1/DTD/svg11.dtd" >
<svg xmlns="http://www.w3.org/2000/svg" xmlns:xlink="http://www.w3.org/1999/xlink" version="1.1">
<metadata>
Created by FontForge 20170731 at Fri Dec  2 17:29:53 2022
 By Aleksey,,,
Copyright 2020 The KumbhSans Project Authors (https://github.com/xconsau/KumbhSans)
</metadata>
<defs>
<font id="KumbhSans-Light" horiz-adv-x="1572" >
  <font-face 
    font-family="Kumbh Sans Light"
    font-weight="300"
    font-stretch="normal"
    units-per-em="2048"
    panose-1="0 0 0 0 0 0 0 0 0 0"
    ascent="1638"
    descent="-410"
    x-height="1000"
    cap-height="1500"
    bbox="-185 -520 2438 2020"
    underline-thickness="120"
    underline-position="-385"
    unicode-range="U+000D-FEFF"
  />
<missing-glyph horiz-adv-x="1270" 
d="M1095 0h-920v1500h920v-1500zM958 1420h-646l323 -576zM995 203v1119l-314 -560zM275 1322v-1119l314 559zM298 80h674l-337 601z" />
    <glyph glyph-name="f_f" unicode="ff" horiz-adv-x="1443" 
d="M404 0h-124v889h-175v111h175v235q0 88 36.5 154.5t100.5 103.5t149 37q51 0 102 -14t101 -42l-47 -97q-34 21 -69.5 31.5t-69.5 10.5q-81 0 -130.5 -57.5t-49.5 -150.5v-211h487v235q0 88 36 154.5t100.5 103.5t149.5 37q50 0 101.5 -14t100.5 -42l-46 -97
q-71 42 -139 42q-81 0 -130.5 -57.5t-49.5 -150.5v-211h313v-111h-313v-889h-123v889h-486v-889z" />
    <glyph glyph-name="fi" unicode="fi" horiz-adv-x="1167" 
d="M403 0h-123v889h-175v111h175v235q0 88 36 154.5t100.5 103.5t149.5 37q51 0 102.5 -14t100.5 -42l-48 -97q-33 21 -68 31.5t-69 10.5q-82 0 -131.5 -57t-49.5 -151v-211h599v-1000h-124v889h-475v-889z" />
    <glyph glyph-name="fl" unicode="fl" horiz-adv-x="1254" 
d="M1089 0h-123v1144q0 126 -77.5 203t-203.5 77t-204 -76.5t-78 -200.5v-147h313v-111h-313v-889h-123v889h-175v111h175v155q0 111 51 195.5t142.5 132t210.5 47.5q121 0 212 -48t142 -134.5t51 -200.5v-1147z" />
    <glyph glyph-name="f_f_i" unicode="ffi" horiz-adv-x="1771" 
d="M1007 0h-123v889h-481v-889h-123v889h-175v111h175v235q0 88 36.5 154.5t100.5 103.5t149 37q51 0 102 -14t101 -42l-47 -97q-34 21 -69.5 31.5t-69.5 10.5q-81 0 -130 -57.5t-49 -150.5v-211h480v235q0 88 36 154.5t100.5 103.5t149.5 37q51 0 102.5 -14t100.5 -42
l-48 -97q-33 21 -68 31.5t-69 10.5q-82 0 -131.5 -57t-49.5 -151v-211h599v-1000h-124v889h-475v-889z" />
    <glyph glyph-name="f_f_l" unicode="ffl" horiz-adv-x="1815" 
d="M1650 0h-123v1144q0 126 -77.5 203t-203.5 77t-204.5 -76.5t-78.5 -200.5v-147h313v-111h-313v-889h-123v889h-437v-889h-123v889h-175v111h175v235q0 88 36.5 154.5t100.5 103.5t149 37q51 0 102 -14t101 -42l-47 -97q-34 21 -69.5 31.5t-69.5 10.5q-81 0 -130.5 -57.5
t-49.5 -150.5v-211h437v155q0 111 51.5 195.5t143 132t210.5 47.5q121 0 212 -48t142 -134.5t51 -200.5v-1147z" />
    <glyph glyph-name="longs_t" unicode="&#x17f;t" horiz-adv-x="1460" 
d="M403 0h-123v889h-175v111h175v155q0 111 51 195.5t142.5 132t210.5 47.5q121 0 212 -48t142 -134.5t51 -200.5v-850q0 -93 49.5 -149.5t131.5 -56.5q65 0 132 38l23 -106q-90 -43 -179 -43q-84 0 -147 37t-98 104t-35 156v867q0 126 -77.5 203t-203.5 77t-204 -76.5
t-78 -200.5v-147h313v-111h-313v-889z" />
    <glyph glyph-name=".notdef" horiz-adv-x="1270" 
d="M1095 0h-920v1500h920v-1500zM958 1420h-646l323 -576zM995 203v1119l-314 -560zM275 1322v-1119l314 559zM298 80h674l-337 601z" />
    <glyph glyph-name=".null" horiz-adv-x="0" 
 />
    <glyph glyph-name="nonmarkingreturn" horiz-adv-x="682" 
 />
    <glyph glyph-name="NULL" horiz-adv-x="1463" 
 />
    <glyph glyph-name="NULL" horiz-adv-x="1463" 
 />
    <glyph glyph-name="CR" unicode="&#xd;" horiz-adv-x="1455" 
 />
    <glyph glyph-name="space" unicode=" " horiz-adv-x="510" 
 />
    <glyph glyph-name="exclam" unicode="!" horiz-adv-x="459" 
d="M261 397h-62l-22 1103h106zM230 -20q-36 0 -60.5 24.5t-24.5 59.5q0 34 24.5 58.5t60.5 24.5q35 0 59.5 -24.5t24.5 -58.5q0 -35 -24.5 -59.5t-59.5 -24.5z" />
    <glyph glyph-name="quotedbl" unicode="&#x22;" horiz-adv-x="767" 
d="M263 1085h-77l-14 435h105zM581 1085h-77l-14 435h105z" />
    <glyph glyph-name="numbersign" unicode="#" horiz-adv-x="1336" 
d="M1236 922h-248l-70 -397h250l-15 -91h-251l-77 -434h-106l77 434h-368l-76 -434h-106l77 434h-245l15 91h246l70 397h-247l15 91h248l86 487h106l-86 -487h367l86 487h106l-86 -487h247zM445 525h367l70 397h-368z" />
    <glyph glyph-name="dollar" unicode="$" horiz-adv-x="1061" 
d="M95 211l58 96q58 -46 116 -77t118.5 -47t123.5 -16q95 0 167.5 34t113.5 93.5t41 137.5q0 85 -45 139t-115.5 91.5t-148.5 69.5q-66 29 -129 59.5t-114.5 71t-82 98t-30.5 138.5q0 138 90 228.5t238 108.5v184h86v-181q77 -2 154 -22.5t146 -57.5l-49 -100
q-61 36 -129 55t-133 19q-122 0 -201 -65t-79 -167q0 -76 42.5 -126.5t111.5 -86t146 -69.5q66 -28 130.5 -60.5t117.5 -76t85 -103.5t32 -146q0 -101 -47 -179.5t-131 -128t-196 -61.5v-184h-86v181q-108 3 -211 42t-190 108z" />
    <glyph glyph-name="percent" unicode="%" horiz-adv-x="1732" 
d="M444 873q-147 0 -238 89t-91 234q0 146 91 235t238 89q149 0 239 -89t90 -235q0 -145 -90.5 -234t-238.5 -89zM441 0h-114l967 1500h114zM444 954q105 0 169 66.5t64 175.5q0 110 -64 176.5t-169 66.5q-104 0 -168.5 -66.5t-64.5 -176.5q0 -109 64.5 -175.5t168.5 -66.5z
M1288 -20q-148 0 -238.5 89t-90.5 234q0 146 90.5 235t238.5 89t238.5 -89t90.5 -235q0 -145 -90.5 -234t-238.5 -89zM1288 61q104 0 168.5 66.5t64.5 175.5q0 110 -64 176.5t-169 66.5t-169 -66.5t-64 -176.5q0 -109 64 -175.5t169 -66.5z" />
    <glyph glyph-name="ampersand" unicode="&#x26;" horiz-adv-x="1510" 
d="M1425 72l-69 -99q-72 49 -141 99.5t-133 99.5q-100 -99 -216 -150.5t-246 -51.5q-140 0 -250 55.5t-172.5 153t-62.5 222.5q0 107 44 182.5t115 130.5t150 101q-73 110 -112 209t-39 184q0 93 43.5 165.5t119.5 114.5t173 42q96 0 168.5 -40.5t113.5 -113t41 -166.5
q0 -109 -50.5 -184.5t-130 -131t-165.5 -105.5q83 -108 200 -223t264 -234q64 81 118.5 187t97.5 235l107 -41q-47 -137 -105 -250.5t-127 -200.5q62 -47 128 -95t136 -95zM545 872q77 42 143 86.5t106.5 102t40.5 137.5q0 96 -57.5 157t-148.5 61t-149.5 -62t-58.5 -159
q0 -69 32 -151t92 -172zM507 729q-66 -39 -121.5 -85t-89 -104t-33.5 -137q0 -92 47 -164.5t128.5 -113.5t185.5 -41q100 0 192.5 40.5t173.5 119.5q-150 125 -272 247.5t-211 237.5z" />
    <glyph glyph-name="quotesingle" unicode="'" horiz-adv-x="436" 
d="M257 1085h-78l-14 435h106z" />
    <glyph glyph-name="parenleft" unicode="(" horiz-adv-x="619" 
d="M507 -289h-127q-144 194 -219.5 428.5t-75.5 485.5t75.5 486t219.5 429h127q-151 -197 -231 -431.5t-80 -482.5q0 -247 80 -482t231 -433z" />
    <glyph glyph-name="parenright" unicode=")" horiz-adv-x="619" 
d="M239 -289h-127q151 198 231 433t80 482q0 248 -79.5 482.5t-231.5 431.5h127q144 -194 219.5 -429t75.5 -486t-75.5 -485.5t-219.5 -428.5z" />
    <glyph glyph-name="asterisk" unicode="*" horiz-adv-x="1034" 
d="M821 769l-97 -73l-207 342l-207 -342l-98 73l252 308l-379 97l37 115l363 -150l-27 401h119l-28 -401l363 150l37 -115l-382 -96z" />
    <glyph glyph-name="plus" unicode="+" horiz-adv-x="1149" 
d="M984 449h-354v-360h-111v360h-354v100h354v360h111v-360h354v-100z" />
    <glyph glyph-name="comma" unicode="," horiz-adv-x="464" 
d="M217 -240h-92l88 420h116z" />
    <glyph glyph-name="hyphen" unicode="-" horiz-adv-x="1130" 
d="M965 455h-800v98h800v-98z" />
    <glyph glyph-name="period" unicode="." horiz-adv-x="453" 
d="M226 -20q-36 0 -59 23t-23 60t23 60.5t59 23.5q37 0 60.5 -23.5t23.5 -60.5t-23.5 -60t-60.5 -23z" />
    <glyph glyph-name="slash" unicode="/" horiz-adv-x="807" 
d="M145 -20h-120l638 1540h119z" />
    <glyph glyph-name="zero" unicode="0" horiz-adv-x="1172" 
d="M586 -30q-155 0 -266 91.5t-169.5 266t-58.5 423.5q0 248 59 422t169.5 265.5t265.5 91.5q156 0 266 -91.5t169 -265.5t59 -422q0 -249 -58.5 -423.5t-169 -266t-266.5 -91.5zM586 88q169 0 264 175.5t95 487.5t-95 486.5t-264 174.5t-264 -174.5t-95 -486.5t95 -487.5
t264 -175.5z" />
    <glyph glyph-name="one" unicode="1" horiz-adv-x="738" 
d="M547 0h-132v1369l-288 -104l-42 107l351 128h111v-1500z" />
    <glyph glyph-name="two" unicode="2" horiz-adv-x="1243" 
d="M1088 0h-883v88q187 158 321 293t219.5 253t126 223.5t40.5 203.5q0 104 -40 183.5t-111 124t-164 44.5q-106 0 -200.5 -60.5t-153.5 -166.5l-78 79q74 125 193 195t257 70q127 0 224.5 -57t152.5 -157t55 -229q0 -110 -42.5 -227.5t-126 -240.5t-206.5 -249t-284 -253
h700v-117z" />
    <glyph glyph-name="three" unicode="3" horiz-adv-x="1152" 
d="M115 143l59 98q82 -76 174.5 -115t189.5 -39q103 0 181 41.5t123 115t45 168.5q0 152 -115.5 236.5t-321.5 84.5h-48v100h48q112 0 199 40t137 109.5t50 158.5q0 79 -39 140.5t-107 96.5t-155 35q-83 0 -164 -34.5t-152 -99.5l-66 91q80 77 181 118.5t211 41.5
q121 0 215 -47.5t148.5 -130t54.5 -188.5q0 -131 -82 -232t-209 -144q163 -32 257.5 -134t94.5 -255q0 -124 -62.5 -221t-170.5 -152.5t-248 -55.5q-120 0 -229.5 44.5t-198.5 128.5z" />
    <glyph glyph-name="four" unicode="4" horiz-adv-x="1251" 
d="M983 0h-132v376h-766v106l767 1018h131v-1007h183v-117h-183v-376zM236 493h615v817z" />
    <glyph glyph-name="five" unicode="5" horiz-adv-x="1112" 
d="M92 164l76 103q51 -85 140.5 -132t199.5 -47q113 0 198 47t132.5 131.5t47.5 196.5t-47 196t-132.5 131t-197.5 47q-71 0 -133.5 -20t-113.5 -59l-70 46l66 696h703v-118h-581l-48 -481q92 39 203 39q144 0 253 -61t171 -169t62 -250q0 -145 -64 -255.5t-178 -172.5
t-264 -62q-132 0 -242 50.5t-181 143.5z" />
    <glyph glyph-name="six" unicode="6" horiz-adv-x="1131" 
d="M564 -30q-144 0 -250 66.5t-164 188t-58 286.5q0 141 43 281.5t122.5 271t191 242t247.5 194.5l63 -88q-134 -85 -242.5 -200.5t-184 -249.5t-110.5 -273q59 94 155 147t217 53q130 0 230.5 -58t157.5 -159.5t57 -232.5q0 -136 -61 -242t-168.5 -166.5t-245.5 -60.5z
M571 87q96 0 171 46.5t118.5 127t43.5 181.5q0 100 -42.5 176.5t-116.5 120.5t-171 44q-98 0 -175 -44.5t-121 -122.5t-44 -177q0 -100 44.5 -179.5t120.5 -126t172 -46.5z" />
    <glyph glyph-name="seven" unicode="7" horiz-adv-x="1063" 
d="M398 0h-143l570 1382h-740v118h893v-95z" />
    <glyph glyph-name="eight" unicode="8" horiz-adv-x="1180" 
d="M590 -30q-143 0 -250 52.5t-166 148.5t-59 223q0 148 80 253t217 147q-114 40 -179 132.5t-65 220.5q0 117 52 202.5t147 133t223 47.5q127 0 222 -47.5t147 -133t52 -202.5q0 -128 -65 -220.5t-179 -132.5q138 -42 218 -147t80 -253q0 -127 -59 -222.5t-166 -148.5
t-250 -53zM590 844q130 0 210.5 78.5t80.5 204.5q0 128 -80.5 206.5t-210.5 78.5t-211 -78.5t-81 -206.5q0 -126 81 -204.5t211 -78.5zM590 88q102 0 179.5 41t120.5 114.5t43 169.5q0 98 -43 171.5t-120.5 114.5t-179.5 41t-179.5 -41t-120.5 -114.5t-43 -171.5
q0 -97 43.5 -170t120.5 -114t179 -41z" />
    <glyph glyph-name="nine" unicode="9" horiz-adv-x="1131" 
d="M435 0l-63 88q134 85 243 200.5t184.5 249.5t109.5 273q-58 -94 -154.5 -147.5t-217.5 -53.5q-130 0 -230.5 58t-157.5 159.5t-57 233.5q0 136 61 242t168.5 166.5t246.5 60.5q144 0 249.5 -66.5t163.5 -188t58 -286.5q0 -141 -43 -281.5t-122.5 -271t-191 -242
t-247.5 -194.5zM557 717q98 0 174.5 45t121 123t44.5 177q0 100 -44 179t-120.5 125.5t-172.5 46.5q-95 0 -171 -46.5t-119.5 -126.5t-43.5 -182q0 -99 42.5 -176t117 -121t171.5 -44z" />
    <glyph glyph-name="colon" unicode=":" horiz-adv-x="453" 
d="M226 813q-35 0 -58.5 24t-23.5 59t23.5 59.5t58.5 24.5t59 -24.5t24 -59.5t-24 -59t-59 -24zM226 -20q-35 0 -58.5 24t-23.5 59t23.5 59.5t58.5 24.5t59 -24.5t24 -59.5t-24 -59t-59 -24z" />
    <glyph glyph-name="semicolon" unicode=";" horiz-adv-x="465" 
d="M258 813q-36 0 -59 24t-23 59t23 59.5t59 24.5q35 0 59 -24.5t24 -59.5t-24 -59t-59 -24zM218 -240h-93l88 420h117z" />
    <glyph glyph-name="less" unicode="&#x3c;" horiz-adv-x="1192" 
d="M1027 0l-942 472v84l942 464v-112l-823 -394l823 -402v-112z" />
    <glyph glyph-name="equal" unicode="=" horiz-adv-x="1285" 
d="M1120 675h-955v102h955v-102zM1120 188h-955v102h955v-102z" />
    <glyph glyph-name="greater" unicode="&#x3e;" horiz-adv-x="1192" 
d="M165 0v112l822 402l-822 394v112l942 -464v-84z" />
    <glyph glyph-name="question" unicode="?" horiz-adv-x="919" 
d="M181 1294l-66 102q175 134 364 134q108 0 187 -42t123.5 -117.5t44.5 -177.5q0 -66 -20.5 -116t-53.5 -92t-71 -84q-49 -52 -96.5 -116.5t-79.5 -157t-32 -230.5h-111q0 156 33 258t82.5 170t96.5 122q51 56 87 110.5t36 134.5q0 102 -63 163t-170 61q-76 0 -152 -31.5
t-139 -90.5zM426 -20q-36 0 -59.5 23t-23.5 60t23.5 60.5t59.5 23.5t59.5 -23.5t23.5 -60.5t-23.5 -60t-59.5 -23z" />
    <glyph glyph-name="at" unicode="@" horiz-adv-x="1941" 
d="M917 81q-127 0 -223 55t-150 153.5t-54 227.5q0 143 63 255.5t172.5 178t245.5 65.5q122 0 214 -53.5t142 -150.5l12 140h117q-7 -59 -15 -127t-14.5 -138.5t-12 -134.5t-9 -114t-3.5 -78q0 -74 35 -120t90 -46q59 0 105.5 52.5t73 144.5t26.5 208q0 209 -88.5 366.5
t-247 246t-369.5 88.5q-174 0 -322.5 -60.5t-259 -169t-172 -255t-61.5 -318.5q0 -202 84 -353.5t234 -235.5t349 -84q240 0 443 126l56 -102q-252 -137 -517 -137q-230 0 -405 99t-273 275.5t-98 409.5q0 197 70.5 364t198.5 291t299.5 193t372.5 69q184 0 336.5 -58
t263 -165t170.5 -253.5t60 -322.5q0 -154 -44.5 -274.5t-122 -189t-176.5 -68.5q-87 0 -143.5 55t-71.5 152q-62 -100 -160 -153.5t-221 -53.5zM932 194q94 0 172 40t129.5 110.5t67.5 160.5l6 73q0 98 -40 171t-112 114t-166 41q-106 0 -190 -50.5t-132.5 -137
t-48.5 -196.5q0 -146 86.5 -236t227.5 -90z" />
    <glyph glyph-name="A" unicode="A" horiz-adv-x="1500" 
d="M194 0h-139l622 1500h146l622 -1500h-140l-177 433h-756zM419 551h662l-331 807z" />
    <glyph glyph-name="B" unicode="B" horiz-adv-x="1304" 
d="M165 0v1500h524q207 0 326 -98.5t119 -268.5q0 -127 -65 -220t-172 -130q141 -31 223.5 -129.5t82.5 -242.5q0 -122 -61 -215t-170 -144.5t-254 -51.5h-553zM297 827h393q141 0 227 77t86 203q0 127 -87.5 201t-238.5 74h-380v-555zM297 118h396q111 0 195 39.5t132 110
t48 161.5q0 89 -45.5 155t-127.5 102.5t-193 36.5h-405v-605z" />
    <glyph glyph-name="C" unicode="C" horiz-adv-x="1540" 
d="M1425 193q-102 -105 -245 -164t-311 -59q-169 0 -311 58t-246.5 163.5t-162 248t-57.5 310.5q0 169 57.5 311.5t162 247.5t246.5 163t311 58q168 0 310.5 -59t245.5 -163l-93 -94q-85 93 -204.5 145.5t-261.5 52.5q-138 0 -255 -49.5t-203 -139t-133.5 -210t-47.5 -263.5
t47.5 -263.5t133.5 -210t203 -139t255 -49.5q142 0 261.5 52.5t204.5 145.5z" />
    <glyph glyph-name="D" unicode="D" horiz-adv-x="1554" 
d="M165 0v1500h412q278 0 476 -89.5t304 -257.5t106 -403q0 -234 -106 -402.5t-304 -258t-476 -89.5h-412zM297 118h287q235 0 401.5 75t254.5 216.5t88 340.5q0 200 -88 341t-254.5 216t-401.5 75h-287v-1264z" />
    <glyph glyph-name="E" unicode="E" horiz-adv-x="1233" 
d="M165 0v1500h903v-118h-771v-559h730v-118h-730v-587h781v-118h-913z" />
    <glyph glyph-name="F" unicode="F" horiz-adv-x="1213" 
d="M165 0v1500h893v-118h-761v-559h720v-118h-720v-705h-132z" />
    <glyph glyph-name="G" unicode="G" horiz-adv-x="1677" 
d="M1321 1235q-88 86 -206 131.5t-251 45.5q-139 0 -255.5 -48.5t-202 -137.5t-132.5 -210.5t-47 -266.5q0 -143 46 -264t129 -210t196.5 -138t248.5 -49q128 0 237 44t191.5 124t131.5 190.5t56 241.5h-587v107h706l4 -48q0 -171 -54 -313t-152.5 -246t-233 -161
t-295.5 -57q-164 0 -302.5 58t-241 163t-159 246.5t-56.5 308.5q0 169 57.5 312t161.5 249t245 164.5t307 58.5q157 0 297.5 -54t249.5 -155z" />
    <glyph glyph-name="H" unicode="H" horiz-adv-x="1494" 
d="M297 0h-132v1500h132v-701h900v701h132v-1500h-132v681h-900v-681z" />
    <glyph glyph-name="I" unicode="I" horiz-adv-x="462" 
d="M297 1500h-132v-1500h132v1500z" />
    <glyph glyph-name="J" unicode="J" horiz-adv-x="478" 
d="M-180 -360l-5 117q183 0 274.5 90.5t91.5 267.5v1385h132v-1375q0 -167 -52.5 -274.5t-161 -159t-279.5 -51.5z" />
    <glyph glyph-name="K" unicode="K" horiz-adv-x="1349" 
d="M298 0h-133v1500h132v-957q28 40 54 75t48 63l651 819h159l-545 -685l660 -815h-172l-574 708l-280 -353v-355z" />
    <glyph glyph-name="L" unicode="L" horiz-adv-x="1150" 
d="M1065 0h-900v1500h132v-1382h768v-118z" />
    <glyph glyph-name="M" unicode="M" horiz-adv-x="1811" 
d="M1646 0h-132v1319l-548 -1067h-123l-546 1061v-1313h-132v1500h173l567 -1111l565 1111h176v-1500z" />
    <glyph glyph-name="N" unicode="N" horiz-adv-x="1613" 
d="M1448 0h-143l-1008 1298v-1298h-132v1500h143l1008 -1298v1298h132v-1500z" />
    <glyph glyph-name="O" unicode="O" horiz-adv-x="1736" 
d="M869 -30q-169 0 -311 58t-246.5 163.5t-162 248t-57.5 310.5q0 169 57.5 311.5t162 247.5t246.5 163t311 58q168 0 309.5 -58t246 -163t162 -247.5t57.5 -311.5q0 -168 -57.5 -310.5t-162 -248t-246 -163.5t-309.5 -58zM868 88q139 0 256 49.5t203.5 139t134 210.5
t47.5 263t-47.5 263t-134 210.5t-203.5 139t-256 49.5q-138 0 -255 -49.5t-203.5 -139t-134.5 -210t-48 -263.5t48 -263.5t134.5 -210t203.5 -139t255 -49.5z" />
    <glyph glyph-name="P" unicode="P" horiz-adv-x="1296" 
d="M165 0v1500h443q182 0 311 -55.5t197 -158.5t68 -247q0 -143 -68 -247t-197 -160t-311 -56h-311v-576h-132zM297 694h301q216 0 333.5 92t117.5 253t-117.5 252t-333.5 91h-301v-688z" />
    <glyph glyph-name="Q" unicode="Q" horiz-adv-x="1736" 
d="M1594 -218q-147 23 -258.5 48t-210.5 59t-211 82h-45q-169 0 -311 58t-246.5 163t-162 247.5t-57.5 310.5q0 169 57.5 311.5t162 247.5t246.5 163t311 58q168 0 309.5 -58t246 -163t162 -247.5t57.5 -311.5q0 -187 -71 -341.5t-197.5 -260.5t-294.5 -149
q104 -31 190.5 -50.5t170.5 -30t178 -16.5zM868 88q139 0 256 49.5t203.5 139t134 210.5t47.5 263t-47.5 263t-134 210.5t-203.5 139t-256 49.5q-138 0 -255 -49.5t-203.5 -139t-134.5 -210t-48 -263.5t48 -263.5t134.5 -210t203.5 -139t255 -49.5z" />
    <glyph glyph-name="R" unicode="R" horiz-adv-x="1341" 
d="M1256 0h-147l-374 633h-438v-633h-132v1500h552q154 0 266 -53t173 -150t61 -231q0 -163 -91 -271.5t-252 -143.5zM297 751h413q172 0 272 84.5t100 230.5q0 147 -99.5 231.5t-272.5 84.5h-413v-631z" />
    <glyph glyph-name="S" unicode="S" horiz-adv-x="1183" 
d="M95 141l65 102q63 -52 128.5 -87t134.5 -52t140 -17q110 0 193 38.5t130 106.5t47 157q0 95 -51.5 156.5t-132.5 104t-172 80.5q-73 31 -144 65.5t-129 80.5t-92.5 110t-34.5 155q0 115 58 202.5t160.5 136.5t237.5 49q90 0 179.5 -23t171.5 -68l-55 -109
q-70 40 -145.5 61.5t-149.5 21.5q-95 0 -167.5 -33t-113.5 -92t-41 -137q0 -85 48.5 -142t125 -97.5t161.5 -78.5q77 -33 151.5 -70t135.5 -86.5t97.5 -118.5t36.5 -166q0 -125 -63 -220t-175 -148t-261 -53q-130 0 -249.5 43t-224.5 128z" />
    <glyph glyph-name="T" unicode="T" horiz-adv-x="1213" 
d="M672 0h-132v1382h-495v118h1123v-118h-496v-1382z" />
    <glyph glyph-name="U" unicode="U" 
d="M1407 1500v-830q0 -218 -74.5 -375t-213.5 -241t-333 -84t-333 84t-213.5 241t-74.5 375v830h132v-824q0 -184 59 -315.5t168.5 -202t261.5 -70.5t261.5 70.5t168.5 202t59 315.5v824h132z" />
    <glyph glyph-name="V" unicode="V" horiz-adv-x="1540" 
d="M844 0h-148l-621 1500h140l556 -1358l554 1358h140z" />
    <glyph glyph-name="W" unicode="W" horiz-adv-x="2125" 
d="M1574 0h-108l-402 1262l-403 -1262h-108l-488 1500h138l404 -1263l403 1263h108l402 -1261l402 1261h138z" />
    <glyph glyph-name="X" unicode="X" horiz-adv-x="1473" 
d="M1408 0h-165l-509 681l-511 -681h-158l588 779l-543 721h165l467 -624l465 624h159l-544 -722z" />
    <glyph glyph-name="Y" unicode="Y" horiz-adv-x="1377" 
d="M754 0h-132v641l-587 859h160l493 -746l494 746h160l-588 -860v-640z" />
    <glyph glyph-name="Z" unicode="Z" horiz-adv-x="1296" 
d="M1205 0h-1113v104l929 1278h-889v118h1055v-114l-920 -1268h938v-118z" />
    <glyph glyph-name="bracketleft" unicode="[" horiz-adv-x="618" 
d="M533 -289h-368v1829h368v-101h-257v-1626h257v-102z" />
    <glyph glyph-name="backslash" unicode="\" horiz-adv-x="807" 
d="M782 -20h-119l-638 1540h120z" />
    <glyph glyph-name="bracketright" unicode="]" horiz-adv-x="618" 
d="M453 -289h-368v101h258v1627h-258v101h368v-1829z" />
    <glyph glyph-name="asciicircum" unicode="^" horiz-adv-x="1047" 
d="M962 700h-104l-335 688l-334 -688h-104l399 800h79z" />
    <glyph glyph-name="underscore" unicode="_" horiz-adv-x="1371" 
d="M1206 0h-1041v101h1041v-101z" />
    <glyph glyph-name="grave" unicode="`" horiz-adv-x="484" 
d="M379 1167h-91l-193 333h121z" />
    <glyph glyph-name="a" unicode="a" horiz-adv-x="1092" 
d="M944 0h-105l-10 167q-50 -86 -140 -136.5t-205 -50.5q-106 0 -189.5 41.5t-131.5 114t-48 164.5q0 96 52 170t143 116.5t207 42.5q81 0 161 -21t143 -59v68q0 91 -40 156t-109.5 99.5t-157.5 34.5q-76 0 -152 -27.5t-142 -81.5l-44 106q82 57 175.5 86.5t186.5 29.5
q125 0 215.5 -51t140.5 -144.5t50 -222.5v-602zM504 93q87 0 157.5 37.5t113.5 106t46 157.5v34q-62 47 -134.5 71.5t-150.5 24.5q-127 0 -210.5 -61t-83.5 -157q0 -60 34.5 -108.5t94 -76.5t133.5 -28z" />
    <glyph glyph-name="b" unicode="b" horiz-adv-x="1292" 
d="M275 0h-110v1500h123v-690q65 97 171 153.5t236 56.5q147 0 262.5 -68t182.5 -185.5t67 -266.5q0 -148 -67 -266t-182.5 -186t-262.5 -68q-133 0 -240.5 59t-173.5 158zM685 91q113 0 202.5 53.5t141.5 146t52 208.5q0 117 -52 210t-141.5 146.5t-202.5 53.5
q-108 0 -195.5 -49.5t-141 -135t-60.5 -194.5v-59q7 -109 60 -195t140.5 -135.5t196.5 -49.5z" />
    <glyph glyph-name="c" unicode="c" horiz-adv-x="1072" 
d="M984 139q-72 -76 -169.5 -117.5t-210.5 -41.5q-148 0 -265.5 68t-185.5 186t-68 266q0 149 68 266.5t185.5 185.5t265.5 68q112 0 210 -41t169 -117l-75 -79q-56 59 -133.5 91.5t-165.5 32.5q-115 0 -204.5 -52.5t-141 -144.5t-51.5 -209q0 -118 51.5 -210.5t141 -145
t204.5 -52.5q88 0 166 32.5t133 91.5z" />
    <glyph glyph-name="d" unicode="d" horiz-adv-x="1293" 
d="M1128 0h-111l-6 192q-64 -99 -171.5 -155.5t-239.5 -56.5q-147 0 -263.5 68t-184 186t-67.5 266q0 149 67.5 266.5t184 185.5t263.5 68q129 0 235 -54.5t170 -150.5v685h123v-1500zM609 91q109 0 199 50.5t143.5 138t53.5 198.5v45q0 110 -53 197.5t-142.5 138
t-200.5 50.5q-113 0 -203.5 -53.5t-142.5 -146t-52 -208.5q0 -117 52 -209.5t142 -146.5t204 -54z" />
    <glyph glyph-name="e" unicode="e" horiz-adv-x="1171" 
d="M1033 125q-184 -145 -408 -145q-155 0 -277.5 69.5t-192.5 189.5t-70 272q0 147 65.5 262t179.5 181t259 66q147 0 259 -69.5t175 -192t63 -283.5v-31h-868q12 -105 69 -184t147.5 -123t202.5 -44q184 0 338 122zM214 550h757q-9 107 -59 187t-131.5 125t-185.5 45
q-105 0 -188.5 -45t-134 -125.5t-58.5 -186.5z" />
    <glyph glyph-name="f" unicode="f" horiz-adv-x="794" 
d="M363 0h-123v889h-175v111h175v235q0 88 36 154.5t100.5 103.5t148.5 37q51 0 102.5 -14t101.5 -42l-48 -97q-34 21 -69 31.5t-69 10.5q-81 0 -130.5 -57.5t-49.5 -150.5v-211h313v-111h-313v-889z" />
    <glyph glyph-name="g" unicode="g" horiz-adv-x="1258" 
d="M584 7q-142 0 -255 66.5t-178.5 181t-65.5 258.5q0 145 65.5 259.5t178.5 181t256 66.5q130 0 234.5 -57t167.5 -153l6 190h110v-975q0 -169 -64 -291t-183 -188t-284 -66q-235 0 -403 159l58 98q138 -146 343 -146q127 0 218.5 53.5t141.5 150.5t50 231v183
q-64 -93 -167 -147.5t-229 -54.5zM594 116q106 0 192 48t138.5 131.5t55.5 189.5v56q-3 107 -55.5 190.5t-138 131.5t-191.5 48q-110 0 -197.5 -52.5t-138 -142t-50.5 -203.5q0 -113 50.5 -203t137.5 -142t197 -52z" />
    <glyph glyph-name="h" unicode="h" horiz-adv-x="1221" 
d="M165 0v1500h123v-679q108 199 366 199q199 0 310.5 -119t111.5 -333v-568h-123v543q0 173 -87 269.5t-242 96.5q-156 0 -246 -98t-90 -268v-543h-123z" />
    <glyph glyph-name="i" unicode="i" horiz-adv-x="472" 
d="M235 1351q-35 0 -58.5 24.5t-23.5 59.5q0 34 23.5 58t58.5 24q36 0 60.5 -24t24.5 -58q0 -35 -24.5 -59.5t-60.5 -24.5zM297 0h-123v1000h123v-1000z" />
    <glyph glyph-name="j" unicode="j" horiz-adv-x="488" 
d="M255 1350q-35 0 -58.5 24.5t-23.5 59.5t23.5 59t58.5 24t59.5 -24t24.5 -59t-24.5 -59.5t-59.5 -24.5zM-104 -509l2 99q15 -3 29.5 -4t28.5 -1q106 0 172 77t66 205v1133h124v-1137q0 -181 -85.5 -282t-234.5 -101q-24 0 -49.5 3t-52.5 8z" />
    <glyph glyph-name="k" unicode="k" horiz-adv-x="1121" 
d="M288 0h-123v1500h123v-1099l71 86l487 513h154l-406 -431l472 -569h-159l-398 479l-221 -235v-244z" />
    <glyph glyph-name="l" unicode="l" horiz-adv-x="459" 
d="M294 0h-129v1540h129v-1540z" />
    <glyph glyph-name="m" unicode="m" horiz-adv-x="1882" 
d="M1733 0h-123v543q0 173 -78 269.5t-218 96.5q-141 0 -222 -97.5t-81 -268.5v-543h-123v543q0 173 -78 269.5t-219 96.5t-222 -97.5t-81 -268.5v-543h-123v1000h102l5 -197q48 107 136.5 162t211.5 55q133 0 225 -64t132 -183q45 121 137.5 184t225.5 63q186 0 289.5 -119
t103.5 -333v-568z" />
    <glyph glyph-name="n" unicode="n" horiz-adv-x="1221" 
d="M1076 0h-123v572q0 156 -84 245.5t-231 89.5q-103 0 -182 -44.5t-123.5 -125.5t-44.5 -191v-546h-123v1000h109l4 -188q52 101 151 154.5t229 53.5q194 0 306 -117t112 -319v-584z" />
    <glyph glyph-name="o" unicode="o" horiz-adv-x="1207" 
d="M605 -20q-148 0 -266 68t-186 185.5t-68 266.5q0 148 68 265.5t186 186t266 68.5q147 0 264 -68.5t185 -186t68 -265.5t-68 -266t-185 -186t-264 -68zM604 91q112 0 200.5 54t140 146.5t51.5 208.5t-51.5 208.5t-140 146.5t-200.5 54t-201 -54t-140.5 -146.5
t-51.5 -208.5t51.5 -208.5t140.5 -146.5t201 -54z" />
    <glyph glyph-name="p" unicode="p" horiz-adv-x="1293" 
d="M288 -500h-123v1500h111l5 -192q65 99 173 155.5t239 56.5q147 0 263.5 -68t184 -185.5t67.5 -266.5q0 -148 -67.5 -266t-184 -186t-263.5 -68q-128 0 -234 54t-171 150v-684zM686 93q114 0 203.5 52.5t140 145t50.5 210.5t-51 210t-140 145t-203 53q-108 0 -196.5 -48.5
t-142.5 -133.5t-59 -193v-68q5 -108 58.5 -192.5t142 -132.5t197.5 -48z" />
    <glyph glyph-name="q" unicode="q" horiz-adv-x="1293" 
d="M1128 -500h-123v684q-65 -96 -171 -150t-234 -54q-147 0 -263.5 68t-184 186t-67.5 266q0 149 67.5 266.5t184 185.5t263.5 68q131 0 238.5 -56.5t173.5 -155.5l5 192h111v-1500zM608 93q109 0 197 47.5t141.5 132t58.5 193.5v68q-5 109 -58 193.5t-140.5 132
t-197.5 47.5q-115 0 -204 -52.5t-141 -144.5t-52 -210t51.5 -210t141 -144.5t203.5 -52.5z" />
    <glyph glyph-name="r" unicode="r" horiz-adv-x="783" 
d="M288 0h-123v1000h109l5 -221q50 116 148.5 178.5t230.5 62.5q24 0 49.5 -2.5t50.5 -7.5l-15 -111q-49 10 -98 10q-104 0 -185 -51t-126.5 -140.5t-45.5 -206.5v-511z" />
    <glyph glyph-name="s" unicode="s" horiz-adv-x="860" 
d="M95 87l36 114q37 -34 82.5 -58t95 -37t100.5 -13q102 0 166 50t64 130q0 57 -32 93.5t-84 62.5t-110 49q-67 26 -131 58.5t-105.5 84.5t-41.5 137q0 80 39.5 138.5t111 91t165.5 32.5q135 0 266 -66l-38 -111q-31 19 -70 33.5t-80 22.5t-78 8q-85 0 -137 -40.5
t-52 -106.5q0 -43 23.5 -74.5t71.5 -58.5t120 -57q69 -28 135 -63.5t109.5 -90.5t43.5 -143q0 -86 -44.5 -152.5t-123 -103.5t-182.5 -37q-173 0 -320 107z" />
    <glyph glyph-name="t" unicode="t" horiz-adv-x="784" 
d="M709 23q-91 -43 -180 -43q-84 0 -146.5 37t-97.5 104t-35 156v612h-175v111h180v250h118v-250h306v-111h-306v-590q0 -94 50 -151t132 -57q65 0 131 38z" />
    <glyph glyph-name="u" unicode="u" horiz-adv-x="1215" 
d="M1050 0h-109l-4 188q-53 -101 -145.5 -154.5t-221.5 -53.5q-198 0 -311.5 120.5t-113.5 331.5v568h123v-560q0 -160 87 -253.5t235 -93.5q153 0 245 98.5t92 262.5v546h123v-1000z" />
    <glyph glyph-name="v" unicode="v" horiz-adv-x="1139" 
d="M1054 1000l-425 -1000h-120l-424 1000h133l352 -867l353 867h131z" />
    <glyph glyph-name="w" unicode="w" horiz-adv-x="1571" 
d="M1181 0h-141l-255 820l-255 -820h-140l-325 1000h130l264 -844l268 844h116l268 -844l265 844h130z" />
    <glyph glyph-name="x" unicode="x" horiz-adv-x="1068" 
d="M180 0h-155l431 522l-392 478h160l312 -381l308 381h155l-386 -475l430 -525h-160l-350 427z" />
    <glyph glyph-name="y" unicode="y" horiz-adv-x="1145" 
d="M460 -500h-134l211 510l-472 990h136l395 -847l351 847h133z" />
    <glyph glyph-name="z" unicode="z" horiz-adv-x="1032" 
d="M947 0h-862v73l656 816h-625v111h809v-65l-663 -824h685v-111z" />
    <glyph glyph-name="braceleft" unicode="{" horiz-adv-x="605" 
d="M520 -289q-134 0 -202.5 58.5t-68.5 173.5v435q0 86 -47.5 149t-116.5 68v61q69 5 116.5 67.5t47.5 148.5v436q0 115 68.5 173.5t202.5 58.5v-101q-83 0 -121.5 -37.5t-38.5 -120.5v-411q0 -83 -40 -148.5t-109 -96.5q69 -31 109 -96.5t40 -148.5v-409q0 -82 38.5 -120.5
t121.5 -38.5v-101z" />
    <glyph glyph-name="bar" unicode="|" horiz-adv-x="440" 
d="M275 -250h-110v1790h110v-1790z" />
    <glyph glyph-name="braceright" unicode="}" horiz-adv-x="605" 
d="M85 -289v101q84 0 122 38.5t38 120.5v409q0 83 40.5 148.5t108.5 96.5q-68 31 -108.5 96.5t-40.5 148.5v411q0 82 -38 120t-122 38v101q135 0 203 -58.5t68 -173.5v-436q0 -86 47.5 -148.5t116.5 -67.5v-61q-69 -5 -116.5 -68t-47.5 -149v-435q0 -115 -68 -173.5
t-203 -58.5z" />
    <glyph glyph-name="asciitilde" unicode="~" horiz-adv-x="1372" 
d="M1207 628q-72 -76 -138 -112t-134 -36q-64 0 -124 25t-119 55q-60 30 -121 56t-126 26q-136 0 -280 -144v96q147 144 283 144q54 0 110.5 -20.5t135.5 -60.5q59 -30 119 -55t124 -25q133 0 270 148v-97z" />
    <glyph glyph-name="uni00A0" unicode="&#xa0;" horiz-adv-x="510" 
 />
    <glyph glyph-name="exclamdown" unicode="&#xa1;" horiz-adv-x="452" 
d="M225 853q-36 0 -59.5 24.5t-23.5 59.5t23.5 59t59.5 24t60.5 -24t24.5 -59t-24.5 -59.5t-60.5 -24.5zM278 -500h-105l22 1103h61z" />
    <glyph glyph-name="cent" unicode="&#xa2;" horiz-adv-x="1072" 
d="M984 279q-62 -67 -148 -108t-186 -49v-182h-87v181q-137 8 -245.5 78t-170.5 184.5t-62 256.5t62 256.5t170.5 184.5t245.5 78v181h87v-182q99 -8 185 -48.5t148 -107.5l-75 -79q-55 59 -131.5 92.5t-165.5 33.5q-114 0 -204.5 -53.5t-143 -146t-52.5 -208.5
q0 -117 52.5 -210t142.5 -146.5t204 -53.5q90 0 167 33.5t131 92.5z" />
    <glyph glyph-name="sterling" unicode="&#xa3;" horiz-adv-x="1200" 
d="M877 703h-387q14 -43 21.5 -86.5t7.5 -89.5q0 -114 -47 -216t-144 -200h724v-111h-902v79q125 100 192 215.5t67 231.5q0 44 -9.5 87.5t-27.5 89.5h-237v93h201q-41 95 -62 167t-21 142q0 121 53.5 214.5t147 147t212.5 53.5q116 0 219.5 -53t177.5 -151l-82 -65
q-58 77 -135.5 117.5t-163.5 40.5q-89 0 -157 -42.5t-106 -116.5t-38 -170q0 -63 19.5 -127t58.5 -157h418v-93z" />
    <glyph glyph-name="currency" unicode="&#xa4;" horiz-adv-x="1288" 
d="M1153 331l-57 -57l-162 163q-58 -49 -132 -75.5t-158 -26.5t-158 26.5t-132 75.5l-162 -163l-57 57l163 161q-48 59 -74 133t-26 158t26 158t74 132l-163 161l57 57l162 -163q58 49 132 75t158 26q85 0 158.5 -26t131.5 -75l162 164l57 -57l-163 -162q49 -58 74.5 -132
t25.5 -158t-25.5 -158t-74.5 -133zM644 424q101 0 180 46.5t124 128t45 184.5q0 104 -45 185t-124 127t-180 46q-100 0 -179 -46t-124.5 -127t-45.5 -185q0 -103 45.5 -184.5t124.5 -128t179 -46.5z" />
    <glyph glyph-name="yen" unicode="&#xa5;" horiz-adv-x="1198" 
d="M663 0h-127v336h-376v66h376v187h-376v66h368l-483 845h146l407 -758l409 758h146l-482 -845h366v-66h-374v-187h374v-66h-374v-336z" />
    <glyph glyph-name="brokenbar" unicode="&#xa6;" horiz-adv-x="441" 
d="M276 820h-111v720h111v-720zM276 -250h-111v720h111v-720z" />
    <glyph glyph-name="section" unicode="&#xa7;" horiz-adv-x="1023" 
d="M206 -26l43 97q48 -27 111.5 -43.5t120.5 -16.5q98 0 158.5 48t60.5 126q0 59 -33.5 97.5t-88.5 67t-119 55.5q-69 30 -137 66.5t-112.5 94t-44.5 149.5q0 105 63 180.5t174 107.5q-54 27 -99.5 59.5t-73 79t-27.5 114.5q0 82 42.5 144t119 96t178.5 34q143 0 276 -64
l-44 -97q-47 27 -110.5 43.5t-120.5 16.5q-98 0 -159 -48t-61 -128q0 -49 26 -84.5t78.5 -66.5t131.5 -64q73 -31 141.5 -68.5t113 -95t44.5 -149.5q0 -104 -62.5 -179.5t-173.5 -108.5q54 -26 99.5 -59t73 -79.5t27.5 -114.5q0 -82 -42 -144t-119 -96t-180 -34
q-142 0 -275 64zM559 467q90 23 144.5 86t54.5 152q0 66 -32 113t-96.5 84t-164.5 71q-89 -23 -144 -85t-55 -150q0 -65 32.5 -113t97.5 -85.5t163 -72.5z" />
    <glyph glyph-name="dieresis" unicode="&#xa8;" horiz-adv-x="889" 
d="M662 1266q-34 0 -55.5 21.5t-21.5 55.5t21.5 55.5t55.5 21.5t55 -21.5t21 -55.5t-21 -55.5t-55 -21.5zM228 1266q-34 0 -55.5 21.5t-21.5 55.5t21.5 55.5t55.5 21.5t55 -21.5t21 -55.5t-21 -55.5t-55 -21.5z" />
    <glyph glyph-name="copyright" unicode="&#xa9;" horiz-adv-x="1369" 
d="M685 -104q-173 0 -309 77.5t-213.5 213t-77.5 308.5t77.5 308t213.5 212.5t309 77.5t308.5 -77.5t213 -212.5t77.5 -308t-77.5 -308.5t-213 -213t-308.5 -77.5zM685 -18q147 0 262 66.5t180.5 182t65.5 262.5q0 148 -66 264t-181 183t-261 67t-261.5 -66.5t-181.5 -183
t-66 -264.5q0 -147 65.5 -262.5t181 -182t262.5 -66.5zM945 264q-102 -92 -243 -92q-93 0 -166.5 42t-115.5 115t-42 166q0 94 42 166t115.5 114t166.5 42q139 0 243 -92l-57 -58q-32 34 -79.5 52.5t-101.5 18.5q-107 0 -174 -67.5t-67 -176.5q0 -108 67 -175.5t174 -67.5
q53 0 100.5 18.5t81.5 52.5z" />
    <glyph glyph-name="ordfeminine" unicode="&#xaa;" horiz-adv-x="844" 
d="M679 810h-73l-7 122q-34 -62 -96 -97t-140 -35q-107 0 -177.5 60t-70.5 151q0 65 37.5 114.5t102 77.5t144.5 28q53 0 103.5 -13t94.5 -39v32q0 107 -54.5 169.5t-147.5 62.5q-51 0 -103.5 -20t-94.5 -54l-41 65q109 86 246 86q127 0 202 -75t75 -202v-433zM377 870
q61 0 111 24.5t79.5 67.5t29.5 97v54q-84 62 -192 62q-91 0 -149 -45t-58 -114q0 -65 50 -105.5t129 -40.5z" />
    <glyph glyph-name="guillemotleft" unicode="&#xab;" horiz-adv-x="1119" 
d="M534 111h-126l-323 386l323 385h126l-328 -386zM954 111h-125l-323 386l323 385h125l-327 -386z" />
    <glyph glyph-name="logicalnot" unicode="&#xac;" horiz-adv-x="1111" 
d="M946 121h-110v355h-671v102h781v-457z" />
    <glyph glyph-name="uni00AD" unicode="&#xad;" horiz-adv-x="1155" 
d="M987 449h-819v100h819v-100z" />
    <glyph glyph-name="registered" unicode="&#xae;" horiz-adv-x="1369" 
d="M685 423q-173 0 -309 77.5t-213.5 213t-77.5 308.5t77.5 308t213.5 212.5t309 77.5t308.5 -77.5t213 -212.5t77.5 -308t-77.5 -308.5t-213 -213t-308.5 -77.5zM685 510q147 0 262 66.5t180.5 182t65.5 261.5q0 148 -66 264t-181 183t-261 67t-261.5 -67t-182 -183
t-66.5 -264q0 -147 66 -262t181.5 -181.5t262.5 -66.5zM941 702h-100l-142 263h-129v-262h-87v642h201q108 0 170 -51t62 -140q0 -64 -33.5 -109t-93.5 -65zM570 1044h108q73 0 112 29.5t39 82.5t-39.5 81.5t-114.5 28.5h-105v-222z" />
    <glyph glyph-name="macron" unicode="&#xaf;" horiz-adv-x="969" 
d="M804 1305h-639v80h639v-80z" />
    <glyph glyph-name="degree" unicode="&#xb0;" horiz-adv-x="700" 
d="M350 990q-77 0 -137 34.5t-94 94.5t-34 136q0 77 34 136.5t94 94t137 34.5q76 0 136 -34.5t94.5 -94t34.5 -136.5q0 -76 -34.5 -136t-94 -94.5t-136.5 -34.5zM350 1066q79 0 131 53.5t52 135.5t-52 135.5t-131 53.5q-81 0 -132 -53t-51 -136q0 -82 51 -135.5t132 -53.5z
" />
    <glyph glyph-name="plusminus" unicode="&#xb1;" horiz-adv-x="1156" 
d="M634 243h-111v366h-355v100h355v354h111v-354h354v-100h-354v-366zM988 0h-819v99h819v-99z" />
    <glyph glyph-name="twosuperior" unicode="&#xb2;" horiz-adv-x="779" 
d="M624 790h-429v53q114 97 187.5 178t108.5 150.5t35 128.5q0 67 -38.5 109t-100.5 42q-51 0 -96.5 -29t-75.5 -81l-50 43q38 64 100 100t131 36q92 0 151 -59.5t59 -153.5q0 -66 -33.5 -137.5t-100.5 -149t-168 -161.5h320v-69z" />
    <glyph glyph-name="threesuperior" unicode="&#xb3;" horiz-adv-x="750" 
d="M155 876l37 57q79 -74 171 -74q66 0 109 41t43 103q0 66 -50.5 101t-143.5 35h-31v61h31q74 0 122.5 38.5t48.5 94.5q0 51 -38 84.5t-97 33.5q-82 0 -143 -65l-42 53q78 81 192 81q88 0 145.5 -50t57.5 -127q0 -57 -33.5 -102.5t-87.5 -66.5q68 -17 108.5 -64t40.5 -116
q0 -88 -64.5 -146t-162.5 -58q-122 0 -213 86z" />
    <glyph glyph-name="acute" unicode="&#xb4;" horiz-adv-x="484" 
d="M195 1167h-90l162 333h122z" />
    <glyph glyph-name="mu" unicode="&#xb5;" horiz-adv-x="1316" 
d="M1265 -20q-119 0 -191.5 49.5t-101.5 152.5q-50 -97 -139.5 -149.5t-211.5 -52.5q-232 0 -335 182v-662h-118v1500h120v-543q0 -169 88 -267.5t238 -98.5q149 0 234 97.5t85 268.5v543h123v-683q0 -242 215 -242z" />
    <glyph glyph-name="paragraph" unicode="&#xb6;" horiz-adv-x="1271" 
d="M1106 -150h-96v1556h-236v-1556h-95v801q-167 0 -286.5 51t-183.5 147.5t-64 231.5q0 132 61.5 226t177 143.5t279.5 49.5h443v-1650z" />
    <glyph glyph-name="periodcentered" unicode="&#xb7;" horiz-adv-x="453" 
d="M226 447q-36 0 -59.5 23.5t-23.5 59.5t23.5 59.5t59.5 23.5q37 0 60.5 -23.5t23.5 -59.5t-23.5 -59.5t-60.5 -23.5z" />
    <glyph glyph-name="cedilla" unicode="&#xb8;" horiz-adv-x="621" 
d="M135 -390l27 69q48 -19 98 -19q62 0 103 29t41 74q0 46 -43 75t-108 29q-6 0 -13.5 -0.5t-14.5 -1.5l55 142h67l-37 -92q77 -4 124.5 -46t47.5 -109q0 -75 -60 -123.5t-156 -48.5q-63 0 -131 22z" />
    <glyph glyph-name="onesuperior" unicode="&#xb9;" horiz-adv-x="492" 
d="M327 780h-81v641l-137 -50l-24 65l176 64h66v-720z" />
    <glyph glyph-name="ordmasculine" unicode="&#xba;" horiz-adv-x="885" 
d="M443 800q-103 0 -184 47t-127.5 128.5t-46.5 184.5q0 104 46.5 185.5t127.5 128t184 46.5q104 0 184 -46.5t126.5 -128t46.5 -185.5t-46.5 -185.5t-127 -128t-183.5 -46.5zM444 874q79 0 141 37t97.5 102t35.5 147q0 83 -35.5 147.5t-97.5 101.5t-141 37q-80 0 -143 -37
t-99 -102t-36 -147t36 -147t99 -102t143 -37z" />
    <glyph glyph-name="guillemotright" unicode="&#xbb;" horiz-adv-x="1119" 
d="M291 111h-126l328 385l-328 386h126l323 -385zM711 111h-125l328 385l-328 386h125l323 -385z" />
    <glyph glyph-name="onequarter" unicode="&#xbc;" horiz-adv-x="1615" 
d="M342 0h-93l1020 1540h86zM377 780h-81v641l-137 -50l-24 65l176 64h66v-720zM1396 0h-78v177h-357v62l364 481h71v-473h84v-70h-84v-177zM1040 247h278v367z" />
    <glyph glyph-name="onehalf" unicode="&#xbd;" horiz-adv-x="1666" 
d="M342 0h-93l1020 1540h86zM377 780h-81v641l-137 -50l-24 65l176 64h66v-720zM1531 0h-427v42q118 100 192 180.5t108 149t34 131.5q0 74 -41 120.5t-105 46.5q-96 0 -159 -103l-49 46q36 60 93.5 93.5t124.5 33.5q93 0 155 -61.5t62 -160.5q0 -70 -34.5 -144.5t-101 -151
t-161.5 -152.5h309v-70z" />
    <glyph glyph-name="threequarters" unicode="&#xbe;" horiz-adv-x="1638" 
d="M366 0h-93l1019 1540h86zM135 876l34 59q77 -71 159 -71q66 0 110 39.5t44 98.5q0 64 -52.5 102.5t-139.5 38.5h-23v61h16q75 0 125 38t50 95q0 49 -37 81.5t-94 32.5q-73 0 -137 -55l-38 50q77 74 182 74q87 0 143 -47.5t56 -121.5q0 -60 -36 -107t-96 -68
q75 -17 118 -65t43 -116q0 -85 -65.5 -142.5t-163.5 -57.5q-113 0 -198 81zM1419 0h-78v177h-357v62l364 481h71v-473h84v-70h-84v-177zM1063 247h278v367z" />
    <glyph glyph-name="questiondown" unicode="&#xbf;" horiz-adv-x="919" 
d="M523 1030q36 0 59.5 -23t23.5 -60t-23.5 -60.5t-59.5 -23.5q-37 0 -60.5 23.5t-23.5 60.5t23.5 60t60.5 23zM767 -284l67 -102q-170 -134 -360 -134q-107 0 -188 41.5t-126 115.5t-45 173q0 67 20 117.5t53 93t72 84.5q48 53 96 117t79.5 157.5t31.5 233.5h111
q0 -156 -33 -258.5t-81 -170t-95 -119.5q-52 -58 -89 -113.5t-37 -135.5q0 -101 63.5 -161.5t169.5 -60.5q77 0 152.5 32t138.5 90z" />
    <glyph glyph-name="Agrave" unicode="&#xc0;" horiz-adv-x="1500" 
d="M779 1667h-92l-193 333h122zM194 0h-139l622 1500h146l622 -1500h-140l-177 433h-756zM419 551h662l-331 807z" />
    <glyph glyph-name="Aacute" unicode="&#xc1;" horiz-adv-x="1500" 
d="M805 1667h-91l162 333h122zM194 0h-139l622 1500h146l622 -1500h-140l-177 433h-756zM419 551h662l-331 807z" />
    <glyph glyph-name="Acircumflex" unicode="&#xc2;" horiz-adv-x="1500" 
d="M1018 1667h-94l-174 274l-175 -274h-93l209 333h117zM194 0h-139l622 1500h146l622 -1500h-140l-177 433h-756zM419 551h662l-331 807z" />
    <glyph glyph-name="Atilde" unicode="&#xc3;" horiz-adv-x="1500" 
d="M1070 1940q-10 -89 -57.5 -138t-123.5 -49q-48 0 -84 19.5t-76 51.5q-25 21 -53.5 38t-66.5 17q-97 0 -116 -116h-63q21 187 178 187q56 0 94.5 -21.5t69.5 -46.5q28 -22 57 -39t66 -17q93 0 112 114h63zM194 0h-139l622 1500h146l622 -1500h-140l-177 433h-756zM419 551
h662l-331 807z" />
    <glyph glyph-name="Adieresis" unicode="&#xc4;" horiz-adv-x="1500" 
d="M194 0h-139l622 1500h146l622 -1500h-140l-177 433h-756zM419 551h662l-331 807zM968 1766q-34 0 -55.5 21.5t-21.5 55.5t21.5 55.5t55.5 21.5t55 -21.5t21 -55.5t-21 -55.5t-55 -21.5zM534 1766q-34 0 -55.5 21.5t-21.5 55.5t21.5 55.5t55.5 21.5t55 -21.5t21 -55.5
t-21 -55.5t-55 -21.5z" />
    <glyph glyph-name="Aring" unicode="&#xc5;" horiz-adv-x="1500" 
d="M749 1600q-93 0 -150 56.5t-57 148.5t57 148.5t150 56.5t150 -56.5t57 -148.5t-57 -148.5t-150 -56.5zM749 1664q62 0 100 38.5t38 102.5t-38 102.5t-100 38.5t-100 -38.5t-38 -102.5t38 -102.5t100 -38.5zM194 0h-139l622 1500h146l622 -1500h-140l-177 433h-756z
M420 551h661l-331 807z" />
    <glyph glyph-name="AE" unicode="&#xc6;" horiz-adv-x="2120" 
d="M2005 0h-870l-55 403h-671l-213 -403h-151l802 1500h953l16 -117h-738l78 -560h691l16 -118h-692l81 -587h737zM471 521h593l-120 878h-10z" />
    <glyph glyph-name="Ccedilla" unicode="&#xc7;" horiz-adv-x="1540" 
d="M1425 193q-96 -98 -227 -156t-287 -66l-22 -56q76 -4 124 -46t48 -109q0 -75 -60 -123.5t-156 -48.5q-64 0 -131 22l26 69q49 -19 98 -19q63 0 104 29t41 74q0 46 -43 75t-108 29q-7 0 -14 -0.5t-14 -1.5l41 106q-163 4 -301 63.5t-239.5 164.5t-157 245t-55.5 306
q0 169 57.5 311.5t162 247.5t246.5 163t311 58q168 0 310.5 -59t245.5 -163l-93 -94q-85 93 -204.5 145.5t-261.5 52.5q-138 0 -255 -49.5t-203 -139t-133.5 -210t-47.5 -263.5t47.5 -263.5t133.5 -210t203 -139t255 -49.5q142 0 261.5 52.5t204.5 145.5z" />
    <glyph glyph-name="Egrave" unicode="&#xc8;" horiz-adv-x="1233" 
d="M686 1667h-90l-193 333h121zM165 0v1500h903v-118h-771v-559h730v-118h-730v-587h781v-118h-913z" />
    <glyph glyph-name="Eacute" unicode="&#xc9;" horiz-adv-x="1233" 
d="M649 1667h-91l161 333h123zM165 0v1500h903v-118h-771v-559h730v-118h-730v-587h781v-118h-913z" />
    <glyph glyph-name="Ecircumflex" unicode="&#xca;" horiz-adv-x="1233" 
d="M891 1667h-93l-175 274l-175 -274h-93l210 333h117zM165 0v1500h903v-118h-771v-559h730v-118h-730v-587h781v-118h-913z" />
    <glyph glyph-name="Edieresis" unicode="&#xcb;" horiz-adv-x="1233" 
d="M165 0v1500h903v-118h-771v-559h730v-118h-730v-587h781v-118h-913zM834 1766q-34 0 -55.5 21.5t-21.5 55.5t21.5 55.5t55.5 21.5t55 -21.5t21 -55.5t-21 -55.5t-55 -21.5zM400 1766q-34 0 -55.5 21.5t-21.5 55.5t21.5 55.5t55.5 21.5t55 -21.5t21 -55.5t-21 -55.5
t-55 -21.5z" />
    <glyph glyph-name="Igrave" unicode="&#xcc;" horiz-adv-x="463" 
d="M255 1667l-162 333h-122l193 -333h91zM298 1500h-132v-1500h132v1500z" />
    <glyph glyph-name="Iacute" unicode="&#xcd;" horiz-adv-x="462" 
d="M266 1667l193 333h-122l-162 -333h91zM297 1500h-132v-1500h132v1500z" />
    <glyph glyph-name="Icircumflex" unicode="&#xce;" horiz-adv-x="463" 
d="M500 1667l-211 333h-116l-210 -333h94l174 274l175 -274h94zM298 1500h-132v-1500h132v1500z" />
    <glyph glyph-name="Idieresis" unicode="&#xcf;" horiz-adv-x="462" 
d="M297 1500h-132v-1500h132v1500zM449 1766q-34 0 -55.5 21.5t-21.5 55.5t21.5 55.5t55.5 21.5t55 -21.5t21 -55.5t-21 -55.5t-55 -21.5zM15 1766q-34 0 -55.5 21.5t-21.5 55.5t21.5 55.5t55.5 21.5t55 -21.5t21 -55.5t-21 -55.5t-55 -21.5z" />
    <glyph glyph-name="Eth" unicode="&#xd0;" horiz-adv-x="1582" 
d="M199 0v699h-174v99h174v702h412q278 0 476 -89.5t304 -257.5t106 -403q0 -234 -106 -402.5t-304 -258t-476 -89.5h-412zM825 699h-494v-581h287q235 0 401.5 75t254.5 216.5t88 340.5q0 200 -88 341t-254.5 216t-401.5 75h-287v-584h494v-99z" />
    <glyph glyph-name="Ntilde" unicode="&#xd1;" horiz-adv-x="1613" 
d="M1142 1947q-10 -88 -57 -137.5t-123 -49.5q-49 0 -84.5 19t-72.5 49q-27 23 -56 40.5t-67 17.5q-98 0 -117 -116h-63q22 188 179 188q56 0 93.5 -22t69.5 -46q28 -22 57 -39t66 -17q94 0 113 113h62zM1448 0h-143l-1008 1298v-1298h-132v1500h143l1008 -1298v1298h132
v-1500z" />
    <glyph glyph-name="Ograve" unicode="&#xd2;" horiz-adv-x="1736" 
d="M930 1667h-91l-193 333h122zM869 -30q-169 0 -311 58t-246.5 163.5t-162 248t-57.5 310.5q0 169 57.5 311.5t162 247.5t246.5 163t311 58q168 0 309.5 -58t246 -163t162 -247.5t57.5 -311.5q0 -168 -57.5 -310.5t-162 -248t-246 -163.5t-309.5 -58zM868 88
q139 0 256 49.5t203.5 139t134 210.5t47.5 263t-47.5 263t-134 210.5t-203.5 139t-256 49.5q-138 0 -255 -49.5t-203.5 -139t-134.5 -210t-48 -263.5t48 -263.5t134.5 -210t203.5 -139t255 -49.5z" />
    <glyph glyph-name="Oacute" unicode="&#xd3;" horiz-adv-x="1736" 
d="M897 1667h-90l161 333h122zM869 -30q-168 0 -310 58t-247 163.5t-162.5 248t-57.5 310.5q0 169 57.5 311.5t162.5 247.5t247 163t310 58q169 0 310 -58t246 -163t162 -247.5t57 -311.5q0 -168 -57 -310.5t-162 -248t-246 -163.5t-310 -58zM868 88q139 0 256 49.5
t203.5 139t134 210.5t47.5 263t-47.5 263t-134 210.5t-203.5 139t-256 49.5q-138 0 -255 -49.5t-203.5 -139t-134.5 -210t-48 -263.5t48 -263.5t134.5 -210t203.5 -139t255 -49.5z" />
    <glyph glyph-name="Ocircumflex" unicode="&#xd4;" horiz-adv-x="1736" 
d="M1137 1667h-93l-175 274l-175 -274h-92l209 333h117zM869 -30q-168 0 -310 58t-247 163.5t-162.5 248t-57.5 310.5q0 169 57.5 311.5t162.5 247.5t247 163t310 58q169 0 310 -58t246 -163t162 -247.5t57 -311.5q0 -168 -57 -310.5t-162 -248t-246 -163.5t-310 -58z
M868 88q139 0 256 49.5t203.5 139t134 210.5t47.5 263t-47.5 263t-134 210.5t-203.5 139t-256 49.5q-138 0 -255 -49.5t-203.5 -139t-134.5 -210t-48 -263.5t48 -263.5t134.5 -210t203.5 -139t255 -49.5z" />
    <glyph glyph-name="Otilde" unicode="&#xd5;" horiz-adv-x="1736" 
d="M1188 1940q-10 -89 -57.5 -138t-123.5 -49q-48 0 -84 19.5t-76 51.5q-25 21 -53.5 38t-66.5 17q-97 0 -116 -116h-63q21 187 178 187q56 0 94.5 -21.5t69.5 -46.5q28 -22 57 -39t66 -17q93 0 112 114h63zM868 -30q-168 0 -310 58t-246.5 163.5t-162 248t-57.5 310.5
q0 169 57.5 311.5t162 247.5t246.5 163t311 58q168 0 309.5 -58t246 -163t162 -247.5t57.5 -311.5q0 -168 -57.5 -310.5t-162 -248t-246 -163.5t-310.5 -58zM868 88q139 0 256 49.5t203.5 139t134 210.5t47.5 263t-47.5 263t-134 210.5t-203.5 139t-256 49.5
q-138 0 -255 -49.5t-203.5 -139t-134.5 -210t-48 -263.5t48 -263.5t134.5 -210t203.5 -139t255 -49.5z" />
    <glyph glyph-name="Odieresis" unicode="&#xd6;" horiz-adv-x="1736" 
d="M869 -30q-169 0 -311 58t-246.5 163.5t-162 248t-57.5 310.5q0 169 57.5 311.5t162 247.5t246.5 163t311 58q168 0 309.5 -58t246 -163t162 -247.5t57.5 -311.5q0 -168 -57.5 -310.5t-162 -248t-246 -163.5t-309.5 -58zM868 88q139 0 256 49.5t203.5 139t134 210.5
t47.5 263t-47.5 263t-134 210.5t-203.5 139t-256 49.5q-138 0 -255 -49.5t-203.5 -139t-134.5 -210t-48 -263.5t48 -263.5t134.5 -210t203.5 -139t255 -49.5zM1086 1766q-34 0 -55.5 21.5t-21.5 55.5t21.5 55.5t55.5 21.5t55 -21.5t21 -55.5t-21 -55.5t-55 -21.5zM652 1766
q-34 0 -55.5 21.5t-21.5 55.5t21.5 55.5t55.5 21.5t55 -21.5t21 -55.5t-21 -55.5t-55 -21.5z" />
    <glyph glyph-name="multiply" unicode="&#xd7;" horiz-adv-x="1037" 
d="M843 104l-325 325l-324 -325l-72 72l324 325l-324 324l72 72l324 -324l325 324l72 -72l-325 -324l325 -325z" />
    <glyph glyph-name="Oslash" unicode="&#xd8;" horiz-adv-x="1735" 
d="M571 -63l-67 28l31 73q-134 60 -234 164.5t-154.5 244t-54.5 303.5q0 169 57.5 311.5t162 247.5t246.5 163t311 58q71 0 138 -11t129 -32l31 75l67 -27l-31 -74q134 -59 232.5 -164t153.5 -244t55 -303q0 -168 -57.5 -310.5t-162 -248t-246 -163.5t-309.5 -58
q-72 0 -138.5 11t-127.5 31zM582 151l508 1224q-51 19 -107 28t-115 9q-139 0 -256 -49.5t-203.5 -139t-134.5 -210t-48 -263.5q0 -136 44 -253t124 -205.5t188 -140.5zM868 88q138 0 255 49.5t203.5 139t134.5 210.5t48 263q0 136 -43.5 252.5t-123 205t-186.5 140.5
l-507 -1224q51 -17 105.5 -26.5t113.5 -9.5z" />
    <glyph glyph-name="Ugrave" unicode="&#xd9;" 
d="M848 1667h-91l-193 333h122zM1407 1500v-830q0 -218 -74.5 -375t-213 -241t-333.5 -84q-193 0 -332 84t-214 241t-75 375v830h132v-824q0 -184 59 -315.5t169 -202t261 -70.5q153 0 262 70.5t168 202t59 315.5v824h132z" />
    <glyph glyph-name="Uacute" unicode="&#xda;" 
d="M815 1667h-90l161 333h122zM1407 1500v-830q0 -218 -74.5 -375t-213 -241t-333.5 -84q-193 0 -332 84t-214 241t-75 375v830h132v-824q0 -184 59 -315.5t169 -202t261 -70.5q153 0 262 70.5t168 202t59 315.5v824h132z" />
    <glyph glyph-name="Ucircumflex" unicode="&#xdb;" 
d="M1055 1667h-93l-174 274l-176 -274h-92l209 333h117zM1407 1500v-830q0 -218 -74.5 -375t-213 -241t-333.5 -84q-193 0 -332 84t-214 241t-75 375v830h132v-824q0 -184 59 -315.5t169 -202t261 -70.5q153 0 262 70.5t168 202t59 315.5v824h132z" />
    <glyph glyph-name="Udieresis" unicode="&#xdc;" 
d="M1407 1500v-830q0 -218 -74.5 -375t-213.5 -241t-333 -84t-333 84t-213.5 241t-74.5 375v830h132v-824q0 -184 59 -315.5t168.5 -202t261.5 -70.5t261.5 70.5t168.5 202t59 315.5v824h132zM1004 1766q-34 0 -55.5 21.5t-21.5 55.5t21.5 55.5t55.5 21.5t55 -21.5t21 -55.5
t-21 -55.5t-55 -21.5zM570 1766q-34 0 -55.5 21.5t-21.5 55.5t21.5 55.5t55.5 21.5t55 -21.5t21 -55.5t-21 -55.5t-55 -21.5z" />
    <glyph glyph-name="Yacute" unicode="&#xdd;" horiz-adv-x="1376" 
d="M717 1667h-91l162 333h123zM753 0h-132v641l-586 859h160l492 -746l494 746h160l-588 -860v-640z" />
    <glyph glyph-name="Thorn" unicode="&#xde;" horiz-adv-x="1203" 
d="M289 0h-124v1500h124v-319h285q149 0 257.5 -52.5t167.5 -149t59 -228.5q0 -133 -59 -230t-167.5 -149.5t-257.5 -52.5h-285v-319zM289 429h269q177 0 275.5 85.5t98.5 235.5q0 151 -98.5 235.5t-275.5 84.5h-269v-641z" />
    <glyph glyph-name="germandbls" unicode="&#xdf;" horiz-adv-x="1138" 
d="M297 0h-132v1120q0 122 50 214t140 144t209 52q115 0 204 -47t140.5 -128.5t51.5 -186.5q0 -76 -26 -130t-65 -93t-81 -70q-31 -24 -53.5 -46t-22.5 -47q0 -20 20 -39.5t75 -55.5q44 -28 83 -58.5t69 -67t47 -83.5t17 -108q0 -111 -58 -199.5t-158 -139.5t-227 -51
l-27 115q95 0 171 38.5t120 105.5t44 150q0 67 -27 111.5t-68 76t-84 58.5q-49 31 -87.5 64.5t-38.5 86.5q0 47 30 78t71 61q33 25 65 54t53.5 71t21.5 104q0 75 -33.5 133.5t-92 91.5t-134.5 33q-121 0 -194 -85t-73 -227v-1100z" />
    <glyph glyph-name="agrave" unicode="&#xe0;" horiz-adv-x="1092" 
d="M622 1167h-92l-193 333h123zM944 0h-105l-10 167q-50 -86 -140 -136.5t-205 -50.5q-106 0 -189.5 41.5t-131.5 114t-48 164.5q0 96 52 170t143 116.5t207 42.5q81 0 161 -21t143 -59v68q0 91 -40 156t-109.5 99.5t-157.5 34.5q-76 0 -152 -27.5t-142 -81.5l-44 106
q82 57 175.5 86.5t186.5 29.5q125 0 215.5 -51t140.5 -144.5t50 -222.5v-602zM502 93q89 0 161.5 40.5t115 110t42.5 156.5v28q-59 47 -130.5 71.5t-151.5 24.5q-130 0 -213.5 -61t-83.5 -157q0 -60 34.5 -108.5t93 -76.5t132.5 -28z" />
    <glyph glyph-name="aacute" unicode="&#xe1;" horiz-adv-x="1092" 
d="M568 1167h-91l162 333h123zM944 0h-105l-10 167q-50 -86 -140 -136.5t-205 -50.5q-106 0 -189.5 41.5t-131.5 114t-48 164.5q0 96 52 170t143 116.5t207 42.5q81 0 161 -21t143 -59v68q0 91 -40 156t-109.5 99.5t-157.5 34.5q-76 0 -152 -27.5t-142 -81.5l-44 106
q82 57 175.5 86.5t186.5 29.5q125 0 215.5 -51t140.5 -144.5t50 -222.5v-602zM502 93q89 0 161.5 40.5t115 110t42.5 156.5v28q-59 47 -130.5 71.5t-151.5 24.5q-130 0 -213.5 -61t-83.5 -157q0 -60 34.5 -108.5t93 -76.5t132.5 -28z" />
    <glyph glyph-name="acircumflex" unicode="&#xe2;" horiz-adv-x="1092" 
d="M821 1167h-94l-174 274l-175 -274h-93l210 333h116zM944 0h-105l-10 167q-50 -86 -140 -136.5t-205 -50.5q-106 0 -189.5 41.5t-131.5 114t-48 164.5q0 96 52 170t143 116.5t207 42.5q81 0 161 -21t143 -59v68q0 91 -40 156t-109.5 99.5t-157.5 34.5q-76 0 -152 -27.5
t-142 -81.5l-44 106q82 57 175.5 86.5t186.5 29.5q125 0 215.5 -51t140.5 -144.5t50 -222.5v-602zM502 93q89 0 161.5 40.5t115 110t42.5 156.5v28q-59 47 -130.5 71.5t-151.5 24.5q-130 0 -213.5 -61t-83.5 -157q0 -60 34.5 -108.5t93 -76.5t132.5 -28z" />
    <glyph glyph-name="atilde" unicode="&#xe3;" horiz-adv-x="1092" 
d="M866 1440q-9 -89 -57 -138t-124 -49q-48 0 -83.5 19.5t-75.5 51.5q-26 21 -54 38t-66 17q-98 0 -117 -116h-63q22 187 178 187q56 0 94.5 -21t69.5 -47q29 -22 57.5 -39t65.5 -17q93 0 112 114h63zM944 0h-105l-10 167q-50 -86 -140 -136.5t-205 -50.5
q-106 0 -189.5 41.5t-131.5 114t-48 164.5q0 96 52 170t143 116.5t207 42.5q81 0 161 -21t143 -59v68q0 91 -40 156t-109.5 99.5t-157.5 34.5q-76 0 -152 -27.5t-142 -81.5l-44 106q82 57 175.5 86.5t186.5 29.5q125 0 215.5 -51t140.5 -144.5t50 -222.5v-602zM502 93
q89 0 161 40.5t114 110t44 156.5v28q-59 47 -130.5 71.5t-151.5 24.5q-130 0 -213.5 -61t-83.5 -157q0 -60 34.5 -108.5t93 -76.5t132.5 -28z" />
    <glyph glyph-name="adieresis" unicode="&#xe4;" horiz-adv-x="1092" 
d="M944 0h-105l-10 167q-50 -86 -140 -136.5t-205 -50.5q-106 0 -189.5 41.5t-131.5 114t-48 164.5q0 96 52 170t143 116.5t207 42.5q81 0 161 -21t143 -59v68q0 91 -40 156t-109.5 99.5t-157.5 34.5q-76 0 -152 -27.5t-142 -81.5l-44 106q82 57 175.5 86.5t186.5 29.5
q125 0 215.5 -51t140.5 -144.5t50 -222.5v-602zM504 93q87 0 157.5 37.5t113.5 106t46 157.5v34q-62 47 -134.5 71.5t-150.5 24.5q-127 0 -210.5 -61t-83.5 -157q0 -60 34.5 -108.5t94 -76.5t133.5 -28zM784 1266q-34 0 -55.5 21.5t-21.5 55.5t21.5 55.5t55.5 21.5t55 -21.5
t21 -55.5t-21 -55.5t-55 -21.5zM350 1266q-34 0 -55.5 21.5t-21.5 55.5t21.5 55.5t55.5 21.5t55 -21.5t21 -55.5t-21 -55.5t-55 -21.5z" />
    <glyph glyph-name="aring" unicode="&#xe5;" horiz-adv-x="1092" 
d="M556 1111q-93 0 -150 56t-57 148t57 148.5t150 56.5q94 0 150.5 -56.5t56.5 -148.5t-56.5 -148t-150.5 -56zM556 1174q63 0 101 39t38 102q0 64 -38 103t-101 39q-62 0 -100 -39t-38 -103q0 -63 38 -102t100 -39zM944 0h-105l-10 167q-50 -86 -140 -136.5t-205 -50.5
q-106 0 -189.5 41.5t-131.5 114t-48 164.5q0 96 52 170t143 116.5t207 42.5q81 0 161 -21t143 -59v68q0 91 -40 156t-109.5 99.5t-157.5 34.5q-76 0 -152 -27.5t-142 -81.5l-44 106q82 57 175.5 86.5t186.5 29.5q125 0 215.5 -51t140.5 -144.5t50 -222.5v-602zM502 93
q89 0 161.5 40.5t115 110t42.5 156.5v28q-59 47 -130.5 71.5t-151.5 24.5q-130 0 -213.5 -61t-83.5 -157q0 -60 34.5 -108.5t93 -76.5t132.5 -28z" />
    <glyph glyph-name="ae" unicode="&#xe6;" horiz-adv-x="1907" 
d="M1768 119q-182 -143 -409 -143q-156 0 -278.5 70.5t-188.5 191.5q-28 -77 -85 -135.5t-135.5 -90.5t-172.5 -32q-110 0 -197 42.5t-137 117t-50 169.5q0 96 52 170.5t144 116.5t211 42q161 0 299 -80v35q-3 144 -87 229t-221 85q-160 0 -293 -109l-44 106
q81 57 173.5 86.5t185.5 29.5q134 0 228.5 -63t135.5 -176q64 110 176 172.5t252 62.5q148 0 259 -67.5t173.5 -188.5t62.5 -282v-30h-870q12 -106 69 -187t147.5 -127t202.5 -46q183 0 339 122zM948 546h760q-7 108 -56.5 188.5t-132 125.5t-188.5 45t-190.5 -45.5
t-135.5 -126t-57 -187.5zM821 438q-65 48 -137 71.5t-148 23.5q-85 0 -151.5 -28t-104.5 -78.5t-38 -115.5q0 -62 35 -111.5t95 -78t138 -28.5q86 0 156.5 35t112.5 100.5t42 154.5v55z" />
    <glyph glyph-name="ccedilla" unicode="&#xe7;" horiz-adv-x="1072" 
d="M984 139q-66 -71 -154 -111.5t-191 -46.5l-27 -66q76 -4 124 -46t48 -109q0 -75 -60.5 -123.5t-156.5 -48.5q-63 0 -131 22l27 69q48 -19 98 -19q63 0 103.5 29t40.5 74q0 46 -42.5 75t-107.5 29q-7 0 -14 -0.5t-14 -1.5l45 116q-140 8 -250 77t-173.5 184t-63.5 258
q0 149 68 266.5t185.5 185.5t265.5 68q112 0 210 -41t169 -117l-75 -79q-56 59 -133.5 91.5t-165.5 32.5q-115 0 -204.5 -52.5t-141 -144.5t-51.5 -209q0 -118 51.5 -210.5t141 -145t204.5 -52.5q88 0 166 32.5t133 91.5z" />
    <glyph glyph-name="egrave" unicode="&#xe8;" horiz-adv-x="1171" 
d="M1033 125q-184 -145 -408 -145q-155 0 -277.5 69.5t-192.5 189.5t-70 272q0 147 65.5 262t179.5 181t259 66q147 0 259 -69.5t175 -192t63 -283.5v-31h-868q12 -105 69 -184t147.5 -123t202.5 -44q184 0 338 122zM214 550h757q-9 107 -59 187t-131.5 125t-185.5 45
q-105 0 -188.5 -45t-134 -125.5t-58.5 -186.5zM658 1167h-91l-193 333h121z" />
    <glyph glyph-name="eacute" unicode="&#xe9;" horiz-adv-x="1171" 
d="M1033 125q-184 -145 -408 -145q-155 0 -277.5 69.5t-192.5 189.5t-70 272q0 147 65.5 262t179.5 181t259 66q147 0 259 -69.5t175 -192t63 -283.5v-31h-868q12 -105 69 -184t147.5 -123t202.5 -44q184 0 338 122zM214 550h757q-9 107 -59 187t-131.5 125t-185.5 45
q-105 0 -188.5 -45t-134 -125.5t-58.5 -186.5zM634 1167h-90l162 333h122z" />
    <glyph glyph-name="ecircumflex" unicode="&#xea;" horiz-adv-x="1171" 
d="M1033 125q-184 -145 -408 -145q-155 0 -277.5 69.5t-192.5 189.5t-70 272q0 147 65.5 262t179.5 181t259 66q147 0 259 -69.5t175 -192t63 -283.5v-31h-868q12 -105 69 -184t147.5 -123t202.5 -44q184 0 338 122zM214 550h757q-9 107 -59 187t-131.5 125t-185.5 45
q-105 0 -188.5 -45t-134 -125.5t-58.5 -186.5zM854 1167h-93l-175 274l-174 -274h-94l210 333h116z" />
    <glyph glyph-name="edieresis" unicode="&#xeb;" horiz-adv-x="1171" 
d="M1033 125q-184 -145 -408 -145q-155 0 -277.5 69.5t-192.5 189.5t-70 272q0 147 65.5 262t179.5 181t259 66q147 0 259 -69.5t175 -192t63 -283.5v-31h-868q12 -105 69 -184t147.5 -123t202.5 -44q184 0 338 122zM214 550h757q-9 107 -59 187t-131.5 125t-185.5 45
q-105 0 -188.5 -45t-134 -125.5t-58.5 -186.5zM803 1266q-34 0 -55.5 21.5t-21.5 55.5t21.5 55.5t55.5 21.5t55 -21.5t21 -55.5t-21 -55.5t-55 -21.5zM369 1266q-34 0 -55.5 21.5t-21.5 55.5t21.5 55.5t55.5 21.5t55 -21.5t21 -55.5t-21 -55.5t-55 -21.5z" />
    <glyph glyph-name="igrave" unicode="&#xec;" horiz-adv-x="454" 
d="M283 1167h-92l-192 333h122zM289 0h-124v1000h124v-1000z" />
    <glyph glyph-name="iacute" unicode="&#xed;" horiz-adv-x="453" 
d="M263 1167h-91l162 333h122zM287 0h-122v1000h122v-1000z" />
    <glyph glyph-name="icircumflex" unicode="&#xee;" horiz-adv-x="454" 
d="M496 1167h-93l-174 274l-176 -274h-93l210 333h117zM289 0h-123v1000h123v-1000z" />
    <glyph glyph-name="idieresis" unicode="&#xef;" horiz-adv-x="454" 
d="M289 0h-124v1000h124v-1000zM445 1266q-34 0 -55.5 21.5t-21.5 55.5t21.5 55.5t55.5 21.5t55 -21.5t21 -55.5t-21 -55.5t-55 -21.5zM11 1266q-34 0 -55.5 21.5t-21.5 55.5t21.5 55.5t55.5 21.5t55 -21.5t21 -55.5t-21 -55.5t-55 -21.5z" />
    <glyph glyph-name="eth" unicode="&#xf0;" horiz-adv-x="1148" 
d="M986 1298l-197 -82q129 -155 201.5 -338.5t72.5 -366.5q0 -165 -58 -286.5t-164 -188t-250 -66.5q-139 0 -246.5 60.5t-168.5 166.5t-61 242q0 131 57.5 232.5t158 159.5t230.5 58q120 0 217 -53t155 -147q-31 127 -97 250t-158 231l-373 -157l-26 61l350 148
q-52 53 -109.5 101t-121.5 89l62 88q80 -48 150.5 -107t131.5 -125l218 91zM583 87q96 0 172.5 46.5t120.5 126t44 178.5q0 100 -44 177.5t-121 122.5t-175 45q-96 0 -170.5 -44t-117 -120.5t-42.5 -176.5q0 -101 43.5 -181.5t119 -127t170.5 -46.5z" />
    <glyph glyph-name="ntilde" unicode="&#xf1;" horiz-adv-x="1225" 
d="M931 1440q-9 -89 -56.5 -138t-122.5 -49q-50 0 -85 19t-72 49q-28 23 -57 40.5t-67 17.5q-97 0 -116 -116h-63q21 187 178 187q56 0 94 -21.5t69 -46.5q29 -22 57.5 -39t65.5 -17q94 0 113 114h62zM1076 0h-123v560q0 160 -88 253.5t-237 93.5q-154 0 -247 -98.5
t-93 -262.5v-546h-123v1000h109l4 -188q52 101 146 154.5t224 53.5q200 0 314 -120t114 -332v-568z" />
    <glyph glyph-name="ograve" unicode="&#xf2;" horiz-adv-x="1207" 
d="M666 1167h-91l-193 333h122zM605 -20q-148 0 -266 68t-186 186t-68 266q0 149 68 266.5t186 185.5t266 68q147 0 264 -68t185 -185.5t68 -266.5q0 -148 -68 -266t-185 -186t-264 -68zM604 91q112 0 200.5 54t140 146.5t51.5 209.5q0 116 -51.5 208.5t-140 146
t-200.5 53.5t-201 -53.5t-140.5 -146t-51.5 -208.5q0 -117 51.5 -209.5t140.5 -146.5t201 -54z" />
    <glyph glyph-name="oacute" unicode="&#xf3;" horiz-adv-x="1207" 
d="M633 1167h-91l162 333h122zM605 -20q-148 0 -266 68t-186 186t-68 266q0 149 68 266.5t186 185.5t266 68q147 0 264 -68t185 -185.5t68 -266.5q0 -148 -68 -266t-185 -186t-264 -68zM604 91q112 0 200.5 54t140 146.5t51.5 209.5q0 116 -51.5 208.5t-140 146t-200.5 53.5
t-201 -53.5t-140.5 -146t-51.5 -208.5q0 -117 51.5 -209.5t140.5 -146.5t201 -54z" />
    <glyph glyph-name="ocircumflex" unicode="&#xf4;" horiz-adv-x="1207" 
d="M873 1167h-93l-175 274l-175 -274h-93l210 333h116zM605 -20q-148 0 -266 68t-186 186t-68 266q0 149 68 266.5t186 185.5t266 68q147 0 264 -68t185 -185.5t68 -266.5q0 -148 -68 -266t-185 -186t-264 -68zM604 91q112 0 200.5 54t140 146.5t51.5 209.5
q0 116 -51.5 208.5t-140 146t-200.5 53.5t-201 -53.5t-140.5 -146t-51.5 -208.5q0 -117 51.5 -209.5t140.5 -146.5t201 -54z" />
    <glyph glyph-name="otilde" unicode="&#xf5;" horiz-adv-x="1207" 
d="M925 1440q-10 -89 -57.5 -138t-122.5 -49q-50 0 -85 19t-72 49q-28 23 -56.5 40.5t-66.5 17.5q-98 0 -117 -116h-63q22 187 178 187q56 0 94 -21.5t70 -46.5q28 -22 56.5 -39t66.5 -17q93 0 112 114h63zM605 -20q-148 0 -266 68t-186 186t-68 266q0 149 68 266.5
t186 185.5t266 68q147 0 264 -68t185 -185.5t68 -266.5q0 -148 -68 -266t-185 -186t-264 -68zM604 91q112 0 200.5 54t140 146.5t51.5 209.5q0 116 -51.5 208.5t-140 146t-200.5 53.5t-201 -53.5t-140.5 -146t-51.5 -208.5q0 -117 51.5 -209.5t140.5 -146.5t201 -54z" />
    <glyph glyph-name="odieresis" unicode="&#xf6;" horiz-adv-x="1207" 
d="M615 -20q-148 0 -266 68t-186 185.5t-68 266.5q0 148 68 265.5t186 186t266 68.5q147 0 264 -68.5t185 -186t68 -265.5t-68 -266t-185 -186t-264 -68zM614 91q112 0 200.5 54t140 146.5t51.5 208.5t-51.5 208.5t-140 146.5t-200.5 54t-201 -54t-140.5 -146.5
t-51.5 -208.5t51.5 -208.5t140.5 -146.5t201 -54zM821 1266q-34 0 -55.5 21.5t-21.5 55.5t21.5 55.5t55.5 21.5t55 -21.5t21 -55.5t-21 -55.5t-55 -21.5zM387 1266q-34 0 -55.5 21.5t-21.5 55.5t21.5 55.5t55.5 21.5t55 -21.5t21 -55.5t-21 -55.5t-55 -21.5z" />
    <glyph glyph-name="divide" unicode="&#xf7;" horiz-adv-x="1130" 
d="M565 813q-36 0 -59.5 24t-23.5 59t23.5 59.5t59.5 24.5q35 0 59.5 -24.5t24.5 -59.5t-24.5 -59t-59.5 -24zM965 431h-800v98h800v-98zM565 -20q-35 0 -59 24t-24 59t24 59.5t59 24.5t59 -24.5t24 -59.5t-24 -59t-59 -24z" />
    <glyph glyph-name="oslash" unicode="&#xf8;" horiz-adv-x="1207" 
d="M412 -70l-74 28l31 75q-129 62 -206.5 185.5t-77.5 281.5q0 149 68 266.5t186 185.5t266 68q43 0 83.5 -6t77.5 -18l28 66l75 -29l-27 -66q127 -63 203.5 -186.5t76.5 -280.5q0 -148 -68 -266t-185 -186t-264 -68q-43 0 -83.5 6t-78.5 18zM413 140l310 751
q-58 18 -119 18q-112 0 -201 -53.5t-140.5 -146t-51.5 -208.5q0 -120 55 -215t147 -146zM604 91q112 0 200.5 54t140 146.5t51.5 209.5q0 119 -54.5 213t-144.5 145l-311 -750q56 -18 118 -18z" />
    <glyph glyph-name="ugrave" unicode="&#xf9;" horiz-adv-x="1215" 
d="M696 1167h-91l-193 333h122zM1050 0h-109l-4 188q-53 -101 -145.5 -154.5t-221.5 -53.5q-198 0 -311.5 120.5t-113.5 331.5v568h123v-560q0 -160 87 -253.5t235 -93.5q153 0 245 98.5t92 262.5v546h123v-1000z" />
    <glyph glyph-name="uacute" unicode="&#xfa;" horiz-adv-x="1215" 
d="M543 1167h-91l161 333h123zM1050 0h-109l-4 188q-53 -101 -145.5 -154.5t-221.5 -53.5q-198 0 -311.5 120.5t-113.5 331.5v568h123v-560q0 -160 87 -253.5t235 -93.5q153 0 245 98.5t92 262.5v546h123v-1000z" />
    <glyph glyph-name="ucircumflex" unicode="&#xfb;" horiz-adv-x="1215" 
d="M862 1167h-93l-175 274l-175 -274h-93l210 333h116zM1050 0h-109l-4 188q-53 -101 -145.5 -154.5t-221.5 -53.5q-198 0 -311.5 120.5t-113.5 331.5v568h123v-560q0 -160 87 -253.5t235 -93.5q153 0 245 98.5t92 262.5v546h123v-1000z" />
    <glyph glyph-name="udieresis" unicode="&#xfc;" horiz-adv-x="1215" 
d="M1050 0h-109l-4 188q-53 -101 -145.5 -154.5t-221.5 -53.5q-198 0 -311.5 120.5t-113.5 331.5v568h123v-560q0 -160 87 -253.5t235 -93.5q153 0 245 98.5t92 262.5v546h123v-1000zM825 1266q-34 0 -55.5 21.5t-21.5 55.5t21.5 55.5t55.5 21.5t55 -21.5t21 -55.5
t-21 -55.5t-55 -21.5zM391 1266q-34 0 -55.5 21.5t-21.5 55.5t21.5 55.5t55.5 21.5t55 -21.5t21 -55.5t-21 -55.5t-55 -21.5z" />
    <glyph glyph-name="yacute" unicode="&#xfd;" horiz-adv-x="1145" 
d="M593 1167h-91l162 333h122zM460 -500h-133l210 510l-472 990h136l395 -847l352 847h132z" />
    <glyph glyph-name="thorn" unicode="&#xfe;" horiz-adv-x="1293" 
d="M288 -500h-123v2000h123v-730q61 117 173 183.5t251 66.5q142 0 254 -68t177 -185.5t65 -266.5q0 -148 -65 -266t-176.5 -186t-253.5 -68q-139 0 -251 67.5t-174 183.5v-731zM685 91q113 0 202.5 53.5t142 146t52.5 208.5q0 117 -52.5 210t-142 146.5t-202.5 53.5
q-108 0 -196.5 -49.5t-142 -135t-58.5 -195.5v-59q5 -109 58.5 -194.5t142 -135t196.5 -49.5z" />
    <glyph glyph-name="ydieresis" unicode="&#xff;" horiz-adv-x="1145" 
d="M460 -500h-134l211 510l-472 990h136l395 -847l351 847h133zM810 1266q-34 0 -55.5 21.5t-21.5 55.5t21.5 55.5t55.5 21.5t55 -21.5t21 -55.5t-21 -55.5t-55 -21.5zM376 1266q-34 0 -55.5 21.5t-21.5 55.5t21.5 55.5t55.5 21.5t55 -21.5t21 -55.5t-21 -55.5t-55 -21.5z
" />
    <glyph glyph-name="Amacron" unicode="&#x100;" horiz-adv-x="1500" 
d="M1066 1805h-640v80h640v-80zM194 0h-139l622 1500h146l622 -1500h-140l-177 433h-756zM420 551h661l-331 807z" />
    <glyph glyph-name="amacron" unicode="&#x101;" horiz-adv-x="1092" 
d="M866 1305h-640v80h640v-80zM944 0h-105l-10 167q-50 -86 -140 -136.5t-205 -50.5q-106 0 -189.5 41.5t-131.5 114t-48 164.5q0 96 52 170t143 116.5t207 42.5q81 0 161 -21t143 -59v68q0 91 -40 156t-109.5 99.5t-157.5 34.5q-76 0 -152 -27.5t-142 -81.5l-44 106
q82 57 175.5 86.5t186.5 29.5q125 0 215.5 -51t140.5 -144.5t50 -222.5v-602zM502 93q89 0 161.5 40.5t115 110t42.5 156.5v28q-59 47 -130.5 71.5t-151.5 24.5q-130 0 -213.5 -61t-83.5 -157q0 -60 34.5 -108.5t93 -76.5t132.5 -28z" />
    <glyph glyph-name="Abreve" unicode="&#x102;" horiz-adv-x="1500" 
d="M1056 2000q0 -90 -39.5 -160t-108.5 -111t-158 -41t-158 41t-108.5 111t-39.5 160h83q0 -105 62.5 -173t160.5 -68q97 0 160 68t63 173h83zM194 0h-139l622 1500h146l622 -1500h-140l-177 433h-756zM419 551h662l-331 807z" />
    <glyph glyph-name="abreve" unicode="&#x103;" horiz-adv-x="1092" 
d="M852 1500q0 -90 -39 -160t-108.5 -111t-158.5 -41t-158 41t-108.5 111t-39.5 160h83q0 -105 63 -173t160 -68t160.5 68t63.5 173h82zM944 0h-105l-10 167q-50 -86 -140 -136.5t-205 -50.5q-106 0 -189.5 41.5t-131.5 114t-48 164.5q0 96 52 170t143 116.5t207 42.5
q81 0 161 -21t143 -59v68q0 91 -40 156t-109.5 99.5t-157.5 34.5q-76 0 -152 -27.5t-142 -81.5l-44 106q82 57 175.5 86.5t186.5 29.5q125 0 215.5 -51t140.5 -144.5t50 -222.5v-602zM502 93q89 0 161.5 40.5t115 110t42.5 156.5v28q-59 47 -130.5 71.5t-151.5 24.5
q-130 0 -213.5 -61t-83.5 -157q0 -60 34.5 -108.5t93 -76.5t132.5 -28z" />
    <glyph glyph-name="Aogonek" unicode="&#x104;" horiz-adv-x="1500" 
d="M195 0h-140l622 1500h146l622 -1500h-30q-74 -33 -119 -96t-45 -122q0 -49 34 -84.5t105 -41.5l-7 -72q-98 0 -152.5 51t-54.5 125q0 72 50.5 137t136.5 103h-57l-178 433h-756zM419 551h662l-331 807z" />
    <glyph glyph-name="aogonek" unicode="&#x105;" horiz-adv-x="1092" 
d="M944 0h-13q-72 -33 -118 -95.5t-46 -122.5q0 -51 35.5 -85.5t103.5 -40.5l-7 -72q-95 0 -151 50t-56 126q0 72 50.5 137t136.5 103h-40l-10 167q-51 -87 -141 -137t-204 -50q-106 0 -189.5 41.5t-131.5 114t-48 164.5q0 96 52.5 170.5t143 116.5t206.5 42q81 0 161 -21
t143 -59v68q0 91 -40 156t-109.5 99.5t-157.5 34.5q-76 0 -151.5 -27t-142.5 -82l-44 106q82 57 175.5 86.5t186.5 29.5q125 0 215.5 -51t140.5 -144.5t50 -222.5v-602zM502 93q89 0 161.5 40.5t115 110t42.5 156.5v28q-59 47 -130.5 71.5t-151.5 24.5q-130 0 -213.5 -61
t-83.5 -157q0 -60 34.5 -108.5t93 -76.5t132.5 -28z" />
    <glyph glyph-name="Cacute" unicode="&#x106;" horiz-adv-x="1541" 
d="M878 1667h-91l161 333h123zM1426 193q-103 -105 -245.5 -164t-311.5 -59q-168 0 -310 58t-247 163.5t-162.5 248t-57.5 310.5q0 169 57.5 311.5t162.5 247.5t247 163t310 58t310.5 -59t245.5 -163l-92 -94q-86 93 -205 145.5t-261 52.5q-138 0 -255 -49.5t-203.5 -139
t-134 -210t-47.5 -263.5t47.5 -263.5t134 -210t203.5 -139t255 -49.5q142 0 261 52.5t204 145.5z" />
    <glyph glyph-name="cacute" unicode="&#x107;" horiz-adv-x="1072" 
d="M604 1167h-91l162 333h122zM984 139q-72 -76 -169.5 -117.5t-210.5 -41.5q-148 0 -265.5 68t-185.5 186t-68 266q0 149 68 266.5t185.5 185.5t265.5 68q112 0 210 -41t169 -117l-75 -79q-56 59 -133.5 91.5t-165.5 32.5q-115 0 -204.5 -52.5t-141 -144.5t-51.5 -209
q0 -118 51.5 -210.5t141 -145t204.5 -52.5q88 0 166 32.5t133 91.5z" />
    <glyph glyph-name="Ccircumflex" unicode="&#x108;" horiz-adv-x="1541" 
d="M1128 1667h-94l-174 274l-175 -274h-93l209 333h117zM1426 193q-103 -105 -245.5 -164t-311.5 -59q-168 0 -310 58t-247 163.5t-162.5 248t-57.5 310.5q0 169 57.5 311.5t162.5 247.5t247 163t310 58t310.5 -59t245.5 -163l-92 -94q-86 93 -205 145.5t-261 52.5
q-138 0 -255 -49.5t-203.5 -139t-134 -210t-47.5 -263.5t47.5 -263.5t134 -210t203.5 -139t255 -49.5q142 0 261 52.5t204 145.5z" />
    <glyph glyph-name="ccircumflex" unicode="&#x109;" horiz-adv-x="1072" 
d="M844 1167h-93l-175 274l-175 -274h-93l210 333h116zM984 139q-72 -76 -169.5 -117.5t-210.5 -41.5q-148 0 -265.5 68t-185.5 186t-68 266q0 149 68 266.5t185.5 185.5t265.5 68q112 0 210 -41t169 -117l-75 -79q-56 59 -133.5 91.5t-165.5 32.5q-115 0 -204.5 -52.5
t-141 -144.5t-51.5 -209q0 -118 51.5 -210.5t141 -145t204.5 -52.5q88 0 166 32.5t133 91.5z" />
    <glyph glyph-name="Cdotaccent" unicode="&#x10a;" horiz-adv-x="1540" 
d="M1425 193q-102 -105 -245 -164t-311 -59q-169 0 -311 58t-246.5 163.5t-162 248t-57.5 310.5q0 169 57.5 311.5t162 247.5t246.5 163t311 58q168 0 310.5 -59t245.5 -163l-93 -94q-85 93 -204.5 145.5t-261.5 52.5q-138 0 -255 -49.5t-203 -139t-133.5 -210t-47.5 -263.5
t47.5 -263.5t133.5 -210t203 -139t255 -49.5q142 0 261.5 52.5t204.5 145.5zM844 1754q-34 0 -55 21.5t-21 55.5t21 55t55 21t55.5 -21t21.5 -55t-21.5 -55.5t-55.5 -21.5z" />
    <glyph glyph-name="cdotaccent" unicode="&#x10b;" horiz-adv-x="1072" 
d="M984 139q-72 -76 -169.5 -117.5t-210.5 -41.5q-148 0 -265.5 68t-185.5 186t-68 266q0 149 68 266.5t185.5 185.5t265.5 68q112 0 210 -41t169 -117l-75 -79q-56 59 -133.5 91.5t-165.5 32.5q-115 0 -204.5 -52.5t-141 -144.5t-51.5 -209q0 -118 51.5 -210.5t141 -145
t204.5 -52.5q88 0 166 32.5t133 91.5zM607 1254q-34 0 -55 21.5t-21 55.5t21 55t55 21t55.5 -21t21.5 -55t-21.5 -55.5t-55.5 -21.5z" />
    <glyph glyph-name="Ccaron" unicode="&#x10c;" horiz-adv-x="1541" 
d="M916 1667h-116l-210 333h93l175 -274l175 274h93zM1426 193q-103 -105 -245.5 -164t-311.5 -59q-168 0 -310 58t-247 163.5t-162.5 248t-57.5 310.5q0 169 57.5 311.5t162.5 247.5t247 163t310 58t310.5 -59t245.5 -163l-92 -94q-86 93 -205 145.5t-261 52.5
q-138 0 -255 -49.5t-203.5 -139t-134 -210t-47.5 -263.5t47.5 -263.5t134 -210t203.5 -139t255 -49.5q142 0 261 52.5t204 145.5z" />
    <glyph glyph-name="ccaron" unicode="&#x10d;" horiz-adv-x="1072" 
d="M662 1167h-116l-209 333h93l175 -274l174 274h94zM984 139q-72 -76 -169.5 -117.5t-210.5 -41.5q-148 0 -265.5 68t-185.5 186t-68 266q0 149 68 266.5t185.5 185.5t265.5 68q112 0 210 -41t169 -117l-75 -79q-56 59 -133.5 91.5t-165.5 32.5q-115 0 -204.5 -52.5
t-141 -144.5t-51.5 -209q0 -118 51.5 -210.5t141 -145t204.5 -52.5q88 0 166 32.5t133 91.5z" />
    <glyph glyph-name="Dcaron" unicode="&#x10e;" horiz-adv-x="1555" 
d="M772 1667h-116l-210 333h93l175 -274l175 274h93zM165 0v1500h413q277 0 475.5 -89.5t304 -257.5t105.5 -403q0 -234 -105.5 -402.5t-304 -258t-475.5 -89.5h-413zM297 118h288q235 0 401 75t254 216.5t88 340.5q0 200 -88 341t-254 216t-401 75h-288v-1264z" />
    <glyph glyph-name="dcaron" unicode="&#x10f;" horiz-adv-x="1688" 
d="M1457 1070h-75l101 450h95zM1128 0h-111l-6 192q-65 -99 -172 -155.5t-239 -56.5q-147 0 -263.5 68t-184 186t-67.5 266q0 149 67.5 266.5t184 185.5t263.5 68q128 0 234 -54.5t171 -150.5v685h123v-1500zM608 91q110 0 200 50.5t143.5 138t53.5 198.5v45
q0 110 -53 197.5t-142.5 138t-200.5 50.5q-113 0 -203.5 -53.5t-142.5 -146t-52 -208.5q0 -117 52 -209.5t142 -146.5t203 -54z" />
    <glyph glyph-name="Dcroat" unicode="&#x110;" horiz-adv-x="1594" 
d="M205 0v699h-173v99h173v702h412q278 0 476 -89.5t304 -257.5t106 -403q0 -234 -106 -402.5t-304 -258t-476 -89.5h-412zM832 699h-495v-581h287q235 0 401.5 75t254.5 216.5t88 340.5q0 200 -88 341t-254.5 216t-401.5 75h-287v-584h495v-99z" />
    <glyph glyph-name="dcroat" unicode="&#x111;" horiz-adv-x="1293" 
d="M1128 0h-111l-6 192q-65 -99 -172 -155.5t-239 -56.5q-147 0 -263.5 68t-184 186t-67.5 266q0 149 67.5 266.5t184 185.5t263.5 68q128 0 234 -54.5t171 -150.5v390h-405v80h405v215h123v-215h112v-80h-112v-1205zM608 91q110 0 200 50.5t143.5 138t53.5 198.5v45
q0 110 -53 197.5t-142.5 138t-200.5 50.5q-113 0 -203.5 -53.5t-142.5 -146t-52 -208.5q0 -117 52 -209.5t142 -146.5t203 -54z" />
    <glyph glyph-name="Emacron" unicode="&#x112;" horiz-adv-x="1233" 
d="M942 1805h-640v80h640v-80zM165 0v1500h903v-118h-771v-559h730v-118h-730v-587h781v-118h-913z" />
    <glyph glyph-name="emacron" unicode="&#x113;" horiz-adv-x="1171" 
d="M1033 125q-184 -145 -408 -145q-155 0 -277.5 69.5t-192.5 189.5t-70 272q0 147 65.5 262t179.5 181t259 66q147 0 259 -69.5t175 -192t63 -283.5v-31h-868q12 -105 69 -184t147.5 -123t202.5 -44q184 0 338 122zM214 550h757q-9 107 -59 187t-131.5 125t-185.5 45
q-105 0 -188.5 -45t-134 -125.5t-58.5 -186.5zM905 1305h-639v80h639v-80z" />
    <glyph glyph-name="Ebreve" unicode="&#x114;" horiz-adv-x="1233" 
d="M928 2000q0 -90 -39.5 -160t-108.5 -111t-158 -41t-158.5 41t-108.5 111t-39 160h82q0 -105 63 -173t161 -68q97 0 159.5 68t62.5 173h84zM165 0v1500h903v-118h-771v-559h730v-118h-730v-587h781v-118h-913z" />
    <glyph glyph-name="ebreve" unicode="&#x115;" horiz-adv-x="1171" 
d="M1033 125q-184 -145 -408 -145q-155 0 -277.5 69.5t-192.5 189.5t-70 272q0 147 65.5 262t179.5 181t259 66q147 0 259 -69.5t175 -192t63 -283.5v-31h-868q12 -105 69 -184t147.5 -123t202.5 -44q184 0 338 122zM214 550h757q-9 107 -59 187t-131.5 125t-185.5 45
q-105 0 -188.5 -45t-134 -125.5t-58.5 -186.5zM892 1500q0 -90 -39.5 -160t-108.5 -111t-158 -41t-158 41t-108.5 111t-39.5 160h83q0 -105 63 -173t160 -68t160 68t63 173h83z" />
    <glyph glyph-name="Edotaccent" unicode="&#x116;" horiz-adv-x="1233" 
d="M165 0v1500h903v-118h-771v-559h730v-118h-730v-587h781v-118h-913zM616 1754q-34 0 -55 21.5t-21 55.5t21 55t55 21t55.5 -21t21.5 -55t-21.5 -55.5t-55.5 -21.5z" />
    <glyph glyph-name="edotaccent" unicode="&#x117;" horiz-adv-x="1171" 
d="M1033 125q-184 -145 -408 -145q-155 0 -277.5 69.5t-192.5 189.5t-70 272q0 147 65.5 262t179.5 181t259 66q147 0 259 -69.5t175 -192t63 -283.5v-31h-868q12 -105 69 -184t147.5 -123t202.5 -44q184 0 338 122zM214 550h757q-9 107 -59 187t-131.5 125t-185.5 45
q-105 0 -188.5 -45t-134 -125.5t-58.5 -186.5zM602 1254q-34 0 -55 21.5t-21 55.5t21 55t55 21t55.5 -21t21.5 -55t-21.5 -55.5t-55.5 -21.5z" />
    <glyph glyph-name="Eogonek" unicode="&#x118;" horiz-adv-x="1233" 
d="M165 0v1500h903v-118h-771v-559h730v-118h-730v-587h781v-118h-19q-74 -33 -119.5 -96t-45.5 -122q0 -49 34 -84.5t105 -41.5l-7 -72q-98 0 -152.5 51t-54.5 125q0 72 50 137t136 103h-840z" />
    <glyph glyph-name="eogonek" unicode="&#x119;" horiz-adv-x="1171" 
d="M1033 125q-54 -43 -114 -71.5t-121 -49.5q-79 -29 -126.5 -95t-47.5 -127q0 -49 34 -84.5t105 -41.5l-7 -72q-97 0 -152 51t-55 125q0 66 42 126t115 100q-40 -6 -81 -6q-155 0 -277.5 69.5t-192.5 189.5t-70 272q0 147 65.5 262t179 181t258.5 66q147 0 259.5 -69.5
t175.5 -192t63 -283.5v-31h-868q12 -105 69 -184t147 -123t201 -44q186 0 340 122zM214 550h757q-9 107 -59 187t-131.5 125t-186.5 45t-188 -45t-133.5 -125.5t-58.5 -186.5z" />
    <glyph glyph-name="Ecaron" unicode="&#x11a;" horiz-adv-x="1233" 
d="M692 1667h-117l-209 333h93l175 -274l174 274h93zM165 0v1500h903v-118h-771v-559h730v-118h-730v-587h781v-118h-913z" />
    <glyph glyph-name="ecaron" unicode="&#x11b;" horiz-adv-x="1171" 
d="M1033 125q-184 -145 -408 -145q-155 0 -277.5 69.5t-192.5 189.5t-70 272q0 147 65.5 262t179.5 181t259 66q147 0 259 -69.5t175 -192t63 -283.5v-31h-868q12 -105 69 -184t147.5 -123t202.5 -44q184 0 338 122zM214 550h757q-9 107 -59 187t-131.5 125t-185.5 45
q-105 0 -188.5 -45t-134 -125.5t-58.5 -186.5zM644 1167h-116l-210 333h94l174 -274l175 274h93z" />
    <glyph glyph-name="Gcircumflex" unicode="&#x11c;" horiz-adv-x="1677" 
d="M1123 1667h-94l-174 274l-175 -274h-93l210 333h116zM1321 1235q-88 86 -206 131.5t-251 45.5q-139 0 -255.5 -48.5t-202 -137.5t-132.5 -210.5t-47 -266.5q0 -143 46 -264t129 -210t196.5 -138t248.5 -49q128 0 237 44t191.5 124t131.5 190.5t56 241.5h-587v107h706
l4 -48q0 -171 -54 -313t-152.5 -246t-233 -161t-295.5 -57q-164 0 -302.5 58t-241 163t-159 246.5t-56.5 308.5q0 169 57.5 312t161.5 249t245 164.5t307 58.5q157 0 297.5 -54t249.5 -155z" />
    <glyph glyph-name="gcircumflex" unicode="&#x11d;" horiz-adv-x="1258" 
d="M897 1167h-93l-175 274l-175 -274h-93l210 333h116zM584 7q-142 0 -255 66.5t-178.5 181t-65.5 258.5q0 145 65.5 259.5t178.5 181t256 66.5q130 0 234.5 -57t167.5 -153l6 190h110v-975q0 -169 -64 -291t-183 -188t-284 -66q-235 0 -403 159l58 98q138 -146 343 -146
q127 0 218.5 53.5t141.5 150.5t50 231v183q-64 -93 -167 -147.5t-229 -54.5zM594 116q106 0 192 48t138.5 131.5t55.5 189.5v56q-3 107 -55.5 190.5t-138 131.5t-191.5 48q-110 0 -197.5 -52.5t-138 -142t-50.5 -203.5q0 -113 50.5 -203t137.5 -142t197 -52z" />
    <glyph glyph-name="Gbreve" unicode="&#x11e;" horiz-adv-x="1677" 
d="M1154 2000q0 -90 -39 -160t-108.5 -111t-158.5 -41q-88 0 -157 41t-109 111t-40 160h84q0 -105 62.5 -173t159.5 -68q98 0 161 68t63 173h82zM1321 1235q-88 86 -206 131.5t-251 45.5q-139 0 -255.5 -48.5t-202 -137.5t-132.5 -210.5t-47 -266.5q0 -143 46 -264t129 -210
t196.5 -138t248.5 -49q128 0 237 44t191.5 124t131.5 190.5t56 241.5h-587v107h706l4 -48q0 -171 -54 -313t-152.5 -246t-233 -161t-295.5 -57q-164 0 -302.5 58t-241 163t-159 246.5t-56.5 308.5q0 169 57.5 312t161.5 249t245 164.5t307 58.5q157 0 297.5 -54t249.5 -155z
" />
    <glyph glyph-name="gbreve" unicode="&#x11f;" horiz-adv-x="1258" 
d="M935 1500q0 -90 -39.5 -160t-108.5 -111t-158 -41t-158 41t-108.5 111t-39.5 160h83q0 -105 63 -173t160 -68t160 68t63 173h83zM584 7q-142 0 -255 66.5t-178.5 181t-65.5 258.5q0 145 65.5 259.5t178.5 181t256 66.5q130 0 234.5 -57t167.5 -153l6 190h110v-975
q0 -169 -64 -291t-183 -188t-284 -66q-235 0 -403 159l58 98q138 -146 343 -146q127 0 218.5 53.5t141.5 150.5t50 231v183q-64 -93 -167 -147.5t-229 -54.5zM594 116q106 0 192 48t138.5 131.5t55.5 189.5v56q-3 107 -55.5 190.5t-138 131.5t-191.5 48q-110 0 -197.5 -52.5
t-138 -142t-50.5 -203.5q0 -113 50.5 -203t137.5 -142t197 -52z" />
    <glyph glyph-name="Gdotaccent" unicode="&#x120;" horiz-adv-x="1677" 
d="M1321 1235q-88 86 -206 131.5t-251 45.5q-139 0 -255.5 -48.5t-202 -137.5t-132.5 -210.5t-47 -266.5q0 -143 46 -264t129 -210t196.5 -138t248.5 -49q128 0 237 44t191.5 124t131.5 190.5t56 241.5h-587v107h706l4 -48q0 -171 -54 -313t-152.5 -246t-233 -161
t-295.5 -57q-164 0 -302.5 58t-241 163t-159 246.5t-56.5 308.5q0 169 57.5 312t161.5 249t245 164.5t307 58.5q157 0 297.5 -54t249.5 -155zM858 1754q-34 0 -55 21.5t-21 55.5t21 55t55 21t55.5 -21t21.5 -55t-21.5 -55.5t-55.5 -21.5z" />
    <glyph glyph-name="gdotaccent" unicode="&#x121;" horiz-adv-x="1258" 
d="M584 7q-142 0 -255 66.5t-178.5 181t-65.5 258.5q0 145 65.5 259.5t178.5 181t256 66.5q130 0 234.5 -57t167.5 -153l6 190h110v-975q0 -169 -64 -291t-183 -188t-284 -66q-235 0 -403 159l58 98q138 -146 343 -146q127 0 218.5 53.5t141.5 150.5t50 231v183
q-64 -93 -167 -147.5t-229 -54.5zM594 116q106 0 192 48t138.5 131.5t55.5 189.5v56q-3 107 -55.5 190.5t-138 131.5t-191.5 48q-110 0 -197.5 -52.5t-138 -142t-50.5 -203.5q0 -113 50.5 -203t137.5 -142t197 -52zM625 1254q-34 0 -55 21.5t-21 55.5t21 55t55 21t55.5 -21
t21.5 -55t-21.5 -55.5t-55.5 -21.5z" />
    <glyph glyph-name="Gcommaaccent" unicode="&#x122;" horiz-adv-x="1677" 
d="M1321 1235q-88 86 -206 131.5t-251 45.5q-139 0 -255.5 -48.5t-202 -137.5t-132.5 -210.5t-47 -266.5q0 -143 46 -264t129 -210t196.5 -138t248.5 -49q128 0 237 44t191.5 124t131.5 190.5t56 241.5h-587v107h706l4 -48q0 -171 -54 -313t-152.5 -246t-233 -161
t-295.5 -57q-164 0 -302.5 58t-241 163t-159 246.5t-56.5 308.5q0 169 57.5 312t161.5 249t245 164.5t307 58.5q157 0 297.5 -54t249.5 -155zM779 -465l-39 42q55 38 85.5 100t30.5 127q0 62 -26 111l86 22q21 -58 21 -121q0 -90 -43 -166t-115 -115z" />
    <glyph glyph-name="gcommaaccent" unicode="&#x123;" horiz-adv-x="1258" 
d="M629 1170h-101l121 450h81zM584 7q-142 0 -255 66.5t-178.5 181t-65.5 258.5q0 145 65.5 259.5t178.5 181t256 66.5q130 0 234.5 -57t167.5 -153l6 190h110v-975q0 -169 -64 -291t-183 -188t-284 -66q-235 0 -403 159l58 98q138 -146 343 -146q127 0 218.5 53.5
t141.5 150.5t50 231v183q-64 -93 -167 -147.5t-229 -54.5zM594 116q106 0 192 48t138.5 131.5t55.5 189.5v56q-3 107 -55.5 190.5t-138 131.5t-191.5 48q-110 0 -197.5 -52.5t-138 -142t-50.5 -203.5q0 -113 50.5 -203t137.5 -142t197 -52z" />
    <glyph glyph-name="Hcircumflex" unicode="&#x124;" horiz-adv-x="1494" 
d="M1017 1667h-94l-175 274l-174 -274h-94l211 333h116zM297 0h-132v1500h132v-701h900v701h132v-1500h-132v681h-900v-681z" />
    <glyph glyph-name="hcircumflex" unicode="&#x125;" horiz-adv-x="1222" 
d="M496 1667h-94l-174 274l-175 -274h-94l210 333h117zM166 0v1500h123v-679q108 199 365 199q200 0 311.5 -119t111.5 -333v-568h-123v543q0 173 -87 269.5t-242 96.5q-156 0 -246 -98t-90 -268v-543h-123z" />
    <glyph glyph-name="Hbar" unicode="&#x126;" horiz-adv-x="1540" 
d="M1515 1109h-163v-1109h-132v681h-900v-681h-132v1109h-163v80h163v311h132v-311h900v311h132v-311h163v-80zM320 799h900v310h-900v-310z" />
    <glyph glyph-name="hbar" unicode="&#x127;" horiz-adv-x="1227" 
d="M670 1209h-376v-388q108 199 366 199q199 0 310.5 -119t111.5 -333v-568h-123v543q0 173 -86.5 269.5t-241.5 96.5q-156 0 -246.5 -98t-90.5 -268v-543h-123v1209h-148v80h148v211h123v-211h376v-80z" />
    <glyph glyph-name="Itilde" unicode="&#x128;" horiz-adv-x="463" 
d="M551 1940h-62q-19 -114 -113 -114q-37 0 -66 17t-57 39q-32 25 -69.5 46.5t-93.5 21.5q-157 0 -178 -187h63q19 116 116 116q38 0 67 -17.5t57 -40.5q37 -30 72 -49t85 -19q75 0 122 49t57 138zM297 1500h-132v-1500h132v1500z" />
    <glyph glyph-name="itilde" unicode="&#x129;" horiz-adv-x="454" 
d="M547 1440q-10 -89 -57 -138t-123 -49q-49 0 -84.5 19t-72.5 49q-27 23 -56 40.5t-67 17.5q-98 0 -117 -116h-63q22 187 178 187q56 0 94 -21.5t70 -46.5q28 -22 57 -39t66 -17q94 0 113 114h62zM289 0h-124v1000h124v-1000z" />
    <glyph glyph-name="Imacron" unicode="&#x12a;" horiz-adv-x="463" 
d="M551 1805v80h-639v-80h639zM298 1500h-132v-1500h132v1500z" />
    <glyph glyph-name="imacron" unicode="&#x12b;" horiz-adv-x="454" 
d="M546 1305h-639v80h639v-80zM289 0h-124v1000h124v-1000z" />
    <glyph glyph-name="Iogonek" unicode="&#x12e;" horiz-adv-x="463" 
d="M298 1500h-132v-1500h65q-86 -38 -136 -103t-50 -137q0 -74 54.5 -125t152.5 -51l7 73q-70 5 -104.5 40.5t-34.5 84.5q0 59 45.5 122t118.5 96h14v1500z" />
    <glyph glyph-name="iogonek" unicode="&#x12f;" horiz-adv-x="472" 
d="M235 1351q-35 0 -58.5 24.5t-23.5 59.5q0 34 23.5 58t58.5 24q36 0 60.5 -24t24.5 -58q0 -35 -24.5 -59.5t-60.5 -24.5zM297 0h-23q-73 -33 -118.5 -95.5t-45.5 -122.5q0 -49 34 -84.5t105 -41.5l-7 -72q-98 0 -152.5 51t-54.5 125q0 73 50 137.5t136 102.5h-47v1000h123
v-1000z" />
    <glyph glyph-name="Idotaccent" unicode="&#x130;" horiz-adv-x="462" 
d="M297 1500h-132v-1500h132v1500zM231 1754q-34 0 -55 21.5t-21 55.5t21 55t55 21t55.5 -21t21.5 -55t-21.5 -55.5t-55.5 -21.5z" />
    <glyph glyph-name="dotlessi" unicode="&#x131;" horiz-adv-x="454" 
d="M289 0h-124v1000h124v-1000z" />
    <glyph glyph-name="IJ" unicode="&#x132;" horiz-adv-x="942" 
d="M297 1500h-132v-1500h132v1500zM283 -388q171 0 280 51.5t161.5 159t52.5 274.5v1403h-132v-1413q0 -177 -92 -267t-275 -90z" />
    <glyph glyph-name="ij" unicode="&#x133;" horiz-adv-x="960" 
d="M235 1351q-35 0 -58.5 24.5t-23.5 59.5q0 34 23.5 58t58.5 24q36 0 60.5 -24t24.5 -58q0 -35 -24.5 -59.5t-60.5 -24.5zM297 0h-123v1000h123v-1000zM727 1350q-35 0 -58.5 24.5t-23.5 59.5t23.5 59t58.5 24t59.5 -24t24.5 -59t-24.5 -59.5t-59.5 -24.5zM368 -509l2 99
q15 -3 29.5 -4t28.5 -1q106 0 172 77t66 205v1133h124v-1137q0 -181 -85.5 -282t-234.5 -101q-24 0 -49.5 3t-52.5 8z" />
    <glyph glyph-name="Jcircumflex" unicode="&#x134;" horiz-adv-x="479" 
d="M519 1667h-93l-175 274l-176 -274h-92l209 333h117zM-180 -388l-5 118q183 0 275 90t92 267v1413h132v-1403q0 -167 -52.5 -274.5t-161.5 -159t-280 -51.5z" />
    <glyph glyph-name="jcircumflex" unicode="&#x135;" horiz-adv-x="448" 
d="M489 1167h-94l-175 274l-175 -274h-93l210 333h117zM-139 -509l2 99q15 -3 29.5 -4t28.5 -1q106 0 172 77t66 205v1133h124v-1137q0 -181 -85.5 -282t-234.5 -101q-24 0 -49.5 3t-52.5 8z" />
    <glyph glyph-name="Kcommaaccent" unicode="&#x136;" horiz-adv-x="1349" 
d="M297 0h-132v1500h132v-957q28 40 54 75t48 63l651 819h158l-544 -685l660 -815h-173l-574 708l-280 -353v-355zM585 -465l-40 42q56 38 86.5 100t30.5 127q0 60 -26 111l85 22q22 -58 22 -121q0 -90 -43 -166t-115 -115z" />
    <glyph glyph-name="uni0137" unicode="&#x137;" horiz-adv-x="1121" 
d="M288 0h-123v1500h123v-1099l71 86l487 513h154l-406 -431l472 -569h-159l-398 479l-221 -235v-244zM460 -465l-39 42q55 38 86 100t31 127q0 61 -26 111l85 22q21 -57 21 -121q0 -90 -43 -166t-115 -115z" />
    <glyph glyph-name="kgreenlandic" unicode="&#x138;" horiz-adv-x="1121" 
d="M288 0h-123v1000h123v-599l71 86l487 513h154l-406 -431l472 -569h-159l-398 479l-221 -235v-244z" />
    <glyph glyph-name="Lacute" unicode="&#x139;" horiz-adv-x="1150" 
d="M274 1667h-91l162 333h122zM1065 0h-900v1500h132v-1382h768v-118z" />
    <glyph glyph-name="lacute" unicode="&#x13a;" horiz-adv-x="460" 
d="M268 1667h-90l162 333h122zM294 0h-129v1540h129v-1540z" />
    <glyph glyph-name="uni013B" unicode="&#x13b;" horiz-adv-x="1150" 
d="M1065 0h-900v1500h132v-1382h768v-118zM549 -465l-40 42q56 38 86.5 100t30.5 127q0 62 -26 111l85 22q22 -58 22 -121q0 -90 -43 -166t-115 -115z" />
    <glyph glyph-name="uni013C" unicode="&#x13c;" horiz-adv-x="459" 
d="M294 0h-129v1540h129v-1540zM159 -465l-39 42q56 38 86 100t30 127q0 62 -25 111l85 22q21 -58 21 -121q0 -90 -42.5 -166t-115.5 -115z" />
    <glyph glyph-name="Lcaron" unicode="&#x13d;" horiz-adv-x="1150" 
d="M778 1050h-75l101 450h95zM1065 0h-900v1500h132v-1382h768v-118z" />
    <glyph glyph-name="lcaron" unicode="&#x13e;" horiz-adv-x="744" 
d="M294 0h-129v1540h129v-1540zM598 1065h-75l101 450h95z" />
    <glyph glyph-name="Ldot" unicode="&#x13f;" horiz-adv-x="1150" 
d="M1065 0h-900v1500h132v-1382h768v-118zM740 673q-34 0 -55.5 21.5t-21.5 55.5t21.5 55.5t55.5 21.5q33 0 54.5 -21.5t21.5 -55.5t-21.5 -55.5t-54.5 -21.5z" />
    <glyph glyph-name="ldot" unicode="&#x140;" horiz-adv-x="693" 
d="M294 0h-129v1540h129v-1540zM584 693q-33 0 -54.5 21.5t-21.5 55.5t21.5 55.5t54.5 21.5q34 0 56 -21.5t22 -55.5t-22 -55.5t-56 -21.5z" />
    <glyph glyph-name="Lslash" unicode="&#x141;" horiz-adv-x="1153" 
d="M-64 508l-40 72l272 157v763h132v-686l311 178l40 -72l-351 -202v-600h768v-118h-900v642z" />
    <glyph glyph-name="lslash" unicode="&#x142;" horiz-adv-x="482" 
d="M-96 528l-41 72l314 181v759h129v-684l272 156l41 -72l-313 -180v-760h-129v685z" />
    <glyph glyph-name="Nacute" unicode="&#x143;" horiz-adv-x="1613" 
d="M864 1667h-91l161 333h123zM1448 0h-144l-1007 1298v-1298h-132v1500h142l1009 -1298v1298h132v-1500z" />
    <glyph glyph-name="nacute" unicode="&#x144;" horiz-adv-x="1221" 
d="M629 1167h-90l161 333h122zM1076 0h-123v560q0 160 -88 253.5t-237 93.5q-154 0 -247 -98.5t-93 -262.5v-546h-123v1000h109l4 -188q52 101 146 154.5t224 53.5q200 0 314 -120t114 -332v-568z" />
    <glyph glyph-name="uni0145" unicode="&#x145;" horiz-adv-x="1610" 
d="M1438 0h-143l-1008 1298v-1298h-132v1500h142l1009 -1298v1298h132v-1500zM745 -465l-38 42q55 38 85.5 100t30.5 127q0 61 -26 111l85 22q22 -59 22 -121q0 -90 -43 -166t-116 -115z" />
    <glyph glyph-name="ncommaaccent" unicode="&#x146;" horiz-adv-x="1221" 
d="M1076 0h-123v560q0 160 -88 253.5t-237 93.5q-154 0 -247 -98.5t-93 -262.5v-546h-123v1000h109l4 -188q52 101 146 154.5t224 53.5q200 0 314 -120t114 -332v-568zM551 -465l-40 42q56 38 86.5 100t30.5 127q0 62 -25 111l84 22q22 -60 22 -121q0 -90 -43 -166
t-115 -115z" />
    <glyph glyph-name="Ncaron" unicode="&#x147;" horiz-adv-x="1613" 
d="M872 1667h-115l-211 333h94l175 -274l174 274h94zM1448 0h-144l-1007 1298v-1298h-132v1500h142l1009 -1298v1298h132v-1500z" />
    <glyph glyph-name="ncaron" unicode="&#x148;" horiz-adv-x="1221" 
d="M688 1167h-116l-210 333h94l175 -274l174 274h94zM1076 0h-123v560q0 160 -88 253.5t-237 93.5q-154 0 -247 -98.5t-93 -262.5v-546h-123v1000h109l4 -188q52 101 146 154.5t224 53.5q200 0 314 -120t114 -332v-568z" />
    <glyph glyph-name="napostrophe" unicode="&#x149;" horiz-adv-x="1221" 
d="M204 1119l-39 42q56 38 86 99.5t30 127.5q0 61 -25 111l85 21q21 -57 21 -121q0 -90 -42.5 -166t-115.5 -114zM1076 0h-123v560q0 160 -88 253.5t-237 93.5q-154 0 -247 -98.5t-93 -262.5v-546h-123v1000h109l4 -188q52 101 146 154.5t224 53.5q200 0 314 -120t114 -332
v-568z" />
    <glyph glyph-name="Eng" unicode="&#x14a;" horiz-adv-x="1613" 
d="M955 -360l-5 117q161 0 252.5 66t105.5 193q-25 30 -68 82t-92 112.5t-93 115.5t-71 91l-600 768l-87 121l-4 -1l4 -161v-1144h-132v1500h143l735 -944q28 -37 68.5 -91t83 -110t75.5 -101.5t47 -65.5l5 1l-6 166v1145h132v-1375q0 -167 -52.5 -274.5t-161.5 -159
t-279 -51.5z" />
    <glyph glyph-name="eng" unicode="&#x14b;" horiz-adv-x="1222" 
d="M655 -509l1 99q16 -3 30.5 -4t27.5 -1q106 0 172.5 77t66.5 205v705q0 156 -84 245.5t-231 89.5q-103 0 -182 -44.5t-123.5 -125.5t-44.5 -191v-546h-123v1000h109l4 -188q52 101 151 154.5t229 53.5q194 0 306 -117t112 -319v-721q0 -181 -85 -282t-235 -101
q-23 0 -48.5 3t-52.5 8z" />
    <glyph glyph-name="Omacron" unicode="&#x14c;" horiz-adv-x="1736" 
d="M1188 1805h-640v80h640v-80zM869 -30q-168 0 -310 58t-247 163.5t-162.5 248t-57.5 310.5q0 169 57.5 311.5t162.5 247.5t247 163t310 58q169 0 310 -58t246 -163t162 -247.5t57 -311.5q0 -168 -57 -310.5t-162 -248t-246 -163.5t-310 -58zM868 88q139 0 256 49.5
t203.5 139t134 210.5t47.5 263t-47.5 263t-134 210.5t-203.5 139t-256 49.5q-138 0 -255 -49.5t-203.5 -139t-134.5 -210t-48 -263.5t48 -263.5t134.5 -210t203.5 -139t255 -49.5z" />
    <glyph glyph-name="omacron" unicode="&#x14d;" horiz-adv-x="1207" 
d="M924 1305h-640v80h640v-80zM605 -20q-148 0 -266 68t-186 186t-68 266q0 149 68 266.5t186 185.5t266 68q147 0 264 -68t185 -185.5t68 -266.5q0 -148 -68 -266t-185 -186t-264 -68zM604 91q112 0 200.5 54t140 146.5t51.5 209.5q0 116 -51.5 208.5t-140 146t-200.5 53.5
t-201 -53.5t-140.5 -146t-51.5 -208.5q0 -117 51.5 -209.5t140.5 -146.5t201 -54z" />
    <glyph glyph-name="Obreve" unicode="&#x14e;" horiz-adv-x="1735" 
d="M1173 2000q0 -90 -39.5 -160t-108.5 -111t-158 -41t-158 41t-108.5 111t-39.5 160h83q0 -105 63 -173t160 -68t160.5 68t63.5 173h82zM869 -30q-169 0 -311 58t-246.5 163.5t-162 248t-57.5 310.5q0 169 57.5 311.5t162 247.5t246.5 163t311 58q168 0 309.5 -58t246 -163
t162 -247.5t57.5 -311.5q0 -168 -57.5 -310.5t-162 -248t-246 -163.5t-309.5 -58zM868 88q138 0 255 49.5t203.5 139t134.5 210.5t48 263t-48 263t-134.5 210.5t-203.5 139t-255 49.5q-139 0 -256 -49.5t-203.5 -139t-134 -210t-47.5 -263.5t47.5 -263.5t134 -210
t203.5 -139t256 -49.5z" />
    <glyph glyph-name="obreve" unicode="&#x14f;" horiz-adv-x="1207" 
d="M909 1500q0 -90 -39.5 -160t-108 -111t-157.5 -41t-158.5 41t-108.5 111t-39 160h82q0 -105 63 -173t161 -68q97 0 159.5 68t62.5 173h83zM605 -20q-148 0 -266 68t-186 186t-68 266q0 149 68 266.5t186 185.5t266 68q147 0 264 -68t185 -185.5t68 -266.5
q0 -148 -68 -266t-185 -186t-264 -68zM604 91q112 0 200.5 54t140 146.5t51.5 209.5q0 116 -51.5 208.5t-140 146t-200.5 53.5t-201 -53.5t-140.5 -146t-51.5 -208.5q0 -117 51.5 -209.5t140.5 -146.5t201 -54z" />
    <glyph glyph-name="Ohungarumlaut" unicode="&#x150;" horiz-adv-x="1735" 
d="M707 1667h-90l161 333h122zM1076 1667h-91l161 333h123zM869 -30q-169 0 -311 58t-246.5 163.5t-162 248t-57.5 310.5q0 169 57.5 311.5t162 247.5t246.5 163t311 58q168 0 309.5 -58t246 -163t162 -247.5t57.5 -311.5q0 -168 -57.5 -310.5t-162 -248t-246 -163.5
t-309.5 -58zM868 88q138 0 255 49.5t203.5 139t134.5 210.5t48 263t-48 263t-134.5 210.5t-203.5 139t-255 49.5q-139 0 -256 -49.5t-203.5 -139t-134 -210t-47.5 -263.5t47.5 -263.5t134 -210t203.5 -139t256 -49.5z" />
    <glyph glyph-name="ohungarumlaut" unicode="&#x151;" horiz-adv-x="1207" 
d="M453 1167h-91l161 333h123zM821 1167h-91l161 333h123zM605 -20q-148 0 -266 68t-186 186t-68 266q0 149 68 266.5t186 185.5t266 68q147 0 264 -68t185 -185.5t68 -266.5q0 -148 -68 -266t-185 -186t-264 -68zM605 91q111 0 199.5 54t140 146.5t51.5 209.5
q0 116 -51.5 208.5t-140 146t-199.5 53.5q-112 0 -201.5 -53.5t-141 -146t-51.5 -208.5q0 -117 51.5 -209.5t141 -146.5t201.5 -54z" />
    <glyph glyph-name="OE" unicode="&#x152;" horiz-adv-x="2593" 
d="M852 -31q-165 0 -303.5 58t-241.5 163t-159 247.5t-56 311.5t56 311.5t159 247.5t242 163t304 58q152 0 282 -50.5t230 -142.5t160 -216v380h903v-118h-771v-559h730v-118h-730v-587h781v-118h-913v378q-60 -124 -160 -216t-230 -142.5t-283 -50.5zM876 86
q140 0 258.5 49.5t206 139t136 210.5t48.5 264q0 142 -48.5 263t-136 210.5t-206 139t-258.5 49.5q-141 0 -259.5 -49.5t-206 -139t-135.5 -210.5t-48 -263q0 -143 48 -264t135.5 -210.5t206 -139t259.5 -49.5z" />
    <glyph glyph-name="oe" unicode="&#x153;" horiz-adv-x="2088" 
d="M1950 125q-184 -145 -408 -145q-165 0 -293 80t-191 214q-38 -88 -106.5 -154t-158 -103t-195.5 -37q-146 0 -262 68t-183.5 186t-67.5 266q0 149 67.5 266.5t183.5 185.5t262 68q103 0 191.5 -35.5t156 -99.5t107.5 -149q58 129 177 206.5t276 77.5q147 0 259 -68.5
t175 -189.5t63 -280v-30h-868q12 -105 69.5 -186t148 -127t201.5 -46q184 0 338 122zM604 91q112 0 200.5 54t140 146.5t51.5 209.5q0 116 -51.5 208.5t-140 146t-200.5 53.5t-201 -53.5t-140.5 -146t-51.5 -208.5q0 -117 51.5 -209.5t140.5 -146.5t201 -54zM1131 550h757
q-8 106 -58 186.5t-132 125.5t-186 45q-106 0 -189 -45t-133.5 -125.5t-58.5 -186.5z" />
    <glyph glyph-name="Racute" unicode="&#x154;" horiz-adv-x="1291" 
d="M594 1667h-91l161 333h123zM1206 0h-147l-374 633h-388v-633h-132v1500h502q154 0 266 -53t173 -150t61 -231q0 -163 -91 -271.5t-252 -143.5zM297 751h363q172 0 272 84.5t100 230.5q0 147 -99.5 231.5t-272.5 84.5h-363v-631z" />
    <glyph glyph-name="racute" unicode="&#x155;" horiz-adv-x="783" 
d="M427 1167h-91l161 333h123zM288 0h-123v1000h109l5 -221q50 116 148.5 178.5t230.5 62.5q24 0 49.5 -2.5t50.5 -7.5l-15 -111q-49 10 -98 10q-104 0 -185 -51t-126.5 -140.5t-45.5 -206.5v-511z" />
    <glyph glyph-name="Rcommaaccent" unicode="&#x156;" horiz-adv-x="1291" 
d="M1206 0h-147l-374 633h-388v-633h-132v1500h502q154 0 266 -53t173 -150t61 -231q0 -163 -91 -271.5t-252 -143.5zM297 751h363q172 0 272 84.5t100 230.5q0 147 -99.5 231.5t-272.5 84.5h-363v-631zM586 -465l-40 42q56 38 86.5 100t30.5 127q0 61 -26 111l85 22
q22 -59 22 -121q0 -90 -43 -166t-115 -115z" />
    <glyph glyph-name="rcommaaccent" unicode="&#x157;" horiz-adv-x="784" 
d="M289 0h-123v1000h109l5 -221q50 116 148.5 178.5t230.5 62.5q24 0 49.5 -2.5t50.5 -7.5l-15 -111q-49 10 -98 10q-104 0 -185 -51t-126.5 -140.5t-45.5 -206.5v-511zM136 -465l-39 42q55 38 86 100t31 127q0 62 -26 111l85 22q21 -59 21 -121q0 -90 -43 -166t-115 -115z
" />
    <glyph glyph-name="Rcaron" unicode="&#x158;" horiz-adv-x="1291" 
d="M680 1667h-116l-210 333h93l175 -274l175 274h93zM1206 0h-147l-374 633h-388v-633h-132v1500h502q154 0 266 -53t173 -150t61 -231q0 -163 -91 -271.5t-252 -143.5zM297 751h363q172 0 272 84.5t100 230.5q0 147 -99.5 231.5t-272.5 84.5h-363v-631z" />
    <glyph glyph-name="rcaron" unicode="&#x159;" horiz-adv-x="784" 
d="M450 1167h-116l-210 333h93l175 -274l175 274h93zM289 0h-123v1000h109l5 -221q49 116 148 178.5t230 62.5q25 0 50.5 -2.5t50.5 -7.5l-15 -111q-50 10 -98 10q-105 0 -186 -51t-126 -140.5t-45 -206.5v-511z" />
    <glyph glyph-name="Sacute" unicode="&#x15a;" horiz-adv-x="1183" 
d="M634 1667h-90l161 333h122zM95 141l65 102q63 -52 128.5 -87t134.5 -52t140 -17q110 0 193 38.5t130 106.5t47 157q0 95 -51.5 156.5t-132.5 104t-172 80.5q-73 31 -144 65.5t-129 80.5t-92.5 110t-34.5 155q0 115 58 202.5t160.5 136.5t237.5 49q90 0 179.5 -23
t171.5 -68l-55 -109q-70 40 -145.5 61.5t-149.5 21.5q-95 0 -167.5 -33t-113.5 -92t-41 -137q0 -85 48.5 -142t125 -97.5t161.5 -78.5q77 -33 151.5 -70t135.5 -86.5t97.5 -118.5t36.5 -166q0 -125 -63 -220t-175 -148t-261 -53q-130 0 -249.5 43t-224.5 128z" />
    <glyph glyph-name="sacute" unicode="&#x15b;" horiz-adv-x="880" 
d="M489 1167h-90l161 333h122zM115 87l36 114q37 -34 82.5 -58t95 -37t100.5 -13q102 0 166 50t64 130q0 57 -32 93.5t-84 62.5t-110 49q-67 26 -131 58.5t-105.5 84.5t-41.5 137q0 80 39.5 138.5t111 91t165.5 32.5q135 0 266 -66l-38 -111q-31 19 -70 33.5t-80 22.5t-78 8
q-85 0 -137 -40.5t-52 -106.5q0 -43 23.5 -74.5t71.5 -58.5t120 -57q69 -28 135 -63.5t109.5 -90.5t43.5 -143q0 -86 -44.5 -152.5t-123 -103.5t-182.5 -37q-173 0 -320 107z" />
    <glyph glyph-name="Scircumflex" unicode="&#x15c;" horiz-adv-x="1183" 
d="M881 1667h-94l-175 274l-174 -274h-94l211 333h116zM95 141l65 102q63 -52 128.5 -87t134.5 -52t140 -17q110 0 193 38.5t130 106.5t47 157q0 95 -51.5 156.5t-132.5 104t-172 80.5q-73 31 -144 65.5t-129 80.5t-92.5 110t-34.5 155q0 115 58 202.5t160.5 136.5t237.5 49
q90 0 179.5 -23t171.5 -68l-55 -109q-70 40 -145.5 61.5t-149.5 21.5q-95 0 -167.5 -33t-113.5 -92t-41 -137q0 -85 48.5 -142t126 -98t164.5 -79q75 -33 149 -70t134.5 -86t97 -118t36.5 -166q0 -125 -63 -220t-175 -148t-261 -53q-130 0 -249.5 43t-224.5 128z" />
    <glyph glyph-name="scircumflex" unicode="&#x15d;" horiz-adv-x="880" 
d="M735 1167h-93l-175 274l-175 -274h-93l210 333h116zM115 87l36 114q37 -34 82.5 -58t95 -37t100.5 -13q102 0 166 50t64 130q0 57 -32 93.5t-84 62.5t-110 49q-67 26 -131 58.5t-105.5 84.5t-41.5 137q0 80 39.5 138.5t111 91t165.5 32.5q135 0 266 -66l-38 -111
q-31 19 -70 33.5t-80 22.5t-78 8q-85 0 -137 -40.5t-52 -106.5q0 -43 23.5 -74.5t71.5 -58.5t120 -57q69 -28 135 -63.5t109.5 -90.5t43.5 -143q0 -86 -44.5 -152.5t-123 -103.5t-182.5 -37q-173 0 -320 107z" />
    <glyph glyph-name="Scedilla" unicode="&#x15e;" horiz-adv-x="1182" 
d="M95 141l65 102q63 -52 128.5 -87t134.5 -52t140 -17q110 0 193 38.5t130 106.5t47 157q0 95 -51.5 156.5t-132.5 104t-172 80.5q-73 31 -144 65.5t-129 80.5t-92.5 110t-34.5 155q0 115 58 202.5t160.5 136.5t237.5 49q90 0 179.5 -23t171.5 -68l-55 -109
q-70 40 -145.5 61.5t-149.5 21.5q-95 0 -167.5 -33t-113.5 -92t-41 -137q0 -85 48.5 -142t125 -97.5t161.5 -78.5q77 -33 151.5 -70t135.5 -86.5t97 -118.5t36 -166q0 -120 -57 -211.5t-160 -146t-240 -62.5l-23 -56q77 -4 125 -46t48 -109q0 -75 -60.5 -123.5t-156.5 -48.5
q-63 0 -131 22l27 69q48 -19 98 -19q62 0 103 29t41 74q0 46 -42.5 75t-107.5 29q-7 0 -14 -0.5t-14 -1.5l40 105q-122 3 -235 46.5t-213 124.5z" />
    <glyph glyph-name="scedilla" unicode="&#x15f;" horiz-adv-x="880" 
d="M115 87l36 114q37 -34 82.5 -58t95 -37t100.5 -13q102 0 166 50t64 130q0 57 -32 93.5t-84 62.5t-110 49q-67 26 -131 58.5t-105.5 84.5t-41.5 137q0 80 39.5 138.5t111 91t165.5 32.5q135 0 266 -66l-38 -111q-31 19 -70 33.5t-80 22.5t-78 8q-85 0 -137 -40.5
t-52 -106.5q0 -43 23.5 -74.5t71.5 -58.5t120 -57q69 -28 135 -63.5t109.5 -90.5t43.5 -143q0 -82 -40 -145.5t-111 -101.5t-165 -45l-27 -66q76 -4 124 -46t48 -109q0 -75 -60 -123.5t-156 -48.5q-64 0 -131 22l27 69q48 -19 97 -19q63 0 104 29t41 74q0 46 -43 75t-108 29
q-7 0 -14 -0.5t-14 -1.5l45 116q-76 5 -149.5 32.5t-137.5 73.5z" />
    <glyph glyph-name="Scaron" unicode="&#x160;" horiz-adv-x="1183" 
d="M687 1667h-116l-210 333h94l175 -274l174 274h94zM95 141l65 102q63 -52 128.5 -87t134.5 -52t140 -17q110 0 193 38.5t130 106.5t47 157q0 95 -51.5 156.5t-132.5 104t-172 80.5q-73 31 -144 65.5t-129 80.5t-92.5 110t-34.5 155q0 115 58 202.5t160.5 136.5t237.5 49
q90 0 179.5 -23t171.5 -68l-55 -109q-70 40 -145.5 61.5t-149.5 21.5q-95 0 -167.5 -33t-113.5 -92t-41 -137q0 -85 48.5 -142t125 -97.5t161.5 -78.5q77 -33 151.5 -70t135.5 -86.5t97.5 -118.5t36.5 -166q0 -125 -63 -220t-175 -148t-261 -53q-130 0 -249.5 43t-224.5 128
z" />
    <glyph glyph-name="scaron" unicode="&#x161;" horiz-adv-x="880" 
d="M525 1167h-116l-210 333h93l175 -274l175 274h93zM115 87l36 114q37 -34 82.5 -58t95 -37t100.5 -13q102 0 166 50t64 130q0 57 -32 93.5t-84 62.5t-110 49q-67 26 -131 58.5t-105.5 84.5t-41.5 137q0 80 39.5 138.5t111 91t165.5 32.5q135 0 266 -66l-38 -111
q-31 19 -70 33.5t-80 22.5t-78 8q-85 0 -137 -40.5t-52 -106.5q0 -43 23.5 -74.5t71.5 -58.5t120 -57q69 -28 135 -63.5t109.5 -90.5t43.5 -143q0 -86 -44.5 -152.5t-123 -103.5t-182.5 -37q-173 0 -320 107z" />
    <glyph glyph-name="Tcedilla" unicode="&#x162;" horiz-adv-x="1213" 
d="M672 0h-30l-34 -85q77 -4 124.5 -46t47.5 -109q0 -75 -60 -123.5t-156 -48.5q-63 0 -131 22l27 69q48 -19 98 -19q62 0 103 29t41 74q0 46 -43 75t-108 29q-6 0 -13.5 -0.5t-14.5 -1.5l52 135h-35v1382h-495v118h1123v-118h-496v-1382z" />
    <glyph glyph-name="tcedilla" unicode="&#x163;" horiz-adv-x="824" 
d="M729 23q-91 -43 -180 -43q-15 0 -30 1.5t-29 4.5l-29 -71q76 -4 124 -46t48 -109q0 -75 -60.5 -123.5t-156.5 -48.5q-63 0 -130 22l26 69q49 -19 98 -19q63 0 104 29t41 74q0 46 -43 75t-108 29q-7 0 -14 -0.5t-14 -1.5l54 139q-74 32 -117 103t-43 170v612h-175v111h180
v250h118v-250h306v-111h-306v-590q0 -94 50 -151t132 -57q65 0 131 38z" />
    <glyph glyph-name="Tcaron" unicode="&#x164;" horiz-adv-x="1213" 
d="M665 1667h-117l-210 333h94l174 -274l175 274h93zM673 0h-132v1382h-496v118h1123v-118h-495v-1382z" />
    <glyph glyph-name="tcaron" unicode="&#x165;" horiz-adv-x="974" 
d="M828 1070h-75l101 450h95zM703 23q-92 -43 -182 -43q-83 0 -145.5 37t-97.5 104t-35 156v612h-175v111h180v250h118v-250h306v-111h-306v-590q0 -94 50 -151t132 -57q65 0 131 38z" />
    <glyph glyph-name="Tbar" unicode="&#x166;" horiz-adv-x="1213" 
d="M929 685h-257v-685h-132v685h-256v79h256v618h-495v118h1123v-118h-496v-618h257v-79z" />
    <glyph glyph-name="tbar" unicode="&#x167;" horiz-adv-x="825" 
d="M698 505h-304v-206q0 -94 49.5 -151t131.5 -57q65 0 131 38l24 -106q-92 -43 -181 -43q-84 0 -146.5 37t-97 104t-34.5 156v228h-176v80h176v304h-175v111h179v250h119v-250h305v-111h-305v-304h304v-80z" />
    <glyph glyph-name="Utilde" unicode="&#x168;" 
d="M1106 1940q-10 -89 -57.5 -138t-123.5 -49q-48 0 -83.5 19.5t-76.5 51.5q-25 21 -53.5 38t-66.5 17q-97 0 -116 -116h-63q21 187 178 187q56 0 94 -21t70 -47q28 -22 57 -39t66 -17q93 0 112 114h63zM1407 1500v-830q0 -218 -74.5 -375t-213.5 -241t-333 -84t-333 84
t-213.5 241t-74.5 375v830h132v-824q0 -184 59 -315.5t168.5 -202t261.5 -70.5t261.5 70.5t168.5 202t59 315.5v824h132z" />
    <glyph glyph-name="utilde" unicode="&#x169;" horiz-adv-x="1215" 
d="M914 1440q-10 -89 -57.5 -138t-122.5 -49q-50 0 -85 19t-72 49q-28 23 -56.5 40.5t-66.5 17.5q-98 0 -117 -116h-63q22 187 178 187q56 0 94 -21.5t70 -46.5q28 -22 56.5 -39t66.5 -17q93 0 112 114h63zM1050 0h-109l-4 188q-53 -101 -145.5 -154.5t-221.5 -53.5
q-198 0 -311.5 120.5t-113.5 331.5v568h123v-560q0 -160 87 -253.5t235 -93.5q153 0 245 98.5t92 262.5v546h123v-1000z" />
    <glyph glyph-name="Umacron" unicode="&#x16a;" 
d="M1106 1805h-640v80h640v-80zM1407 1500v-830q0 -218 -74.5 -375t-213 -241t-333.5 -84q-193 0 -332 84t-214 241t-75 375v830h132v-824q0 -184 59 -315.5t169 -202t261 -70.5q153 0 262 70.5t168 202t59 315.5v824h132z" />
    <glyph glyph-name="umacron" unicode="&#x16b;" horiz-adv-x="1215" 
d="M914 1305h-640v80h640v-80zM1050 0h-109l-4 188q-53 -101 -145.5 -154.5t-221.5 -53.5q-198 0 -311.5 120.5t-113.5 331.5v568h123v-560q0 -160 87 -253.5t235 -93.5q153 0 245 98.5t92 262.5v546h123v-1000z" />
    <glyph glyph-name="Ubreve" unicode="&#x16c;" 
d="M1092 2000q0 -90 -39.5 -160t-108.5 -111t-158 -41t-158 41t-108.5 111t-39.5 160h83q0 -105 62.5 -173t160.5 -68q97 0 160 68t63 173h83zM1407 1500v-830q0 -218 -74.5 -375t-213 -241t-333.5 -84q-193 0 -332 84t-214 241t-75 375v830h132v-824q0 -184 59 -315.5
t169 -202t261 -70.5q153 0 262 70.5t168 202t59 315.5v824h132z" />
    <glyph glyph-name="ubreve" unicode="&#x16d;" horiz-adv-x="1215" 
d="M900 1500q0 -90 -39.5 -160t-108.5 -111t-158 -41t-158 41t-108.5 111t-39.5 160h83q0 -105 63 -173t160 -68t160 68t63 173h83zM1050 0h-109l-4 188q-53 -101 -145.5 -154.5t-221.5 -53.5q-198 0 -311.5 120.5t-113.5 331.5v568h123v-560q0 -160 87 -253.5t235 -93.5
q153 0 245 98.5t92 262.5v546h123v-1000z" />
    <glyph glyph-name="Uring" unicode="&#x16e;" 
d="M786 1611q-94 0 -151 56t-57 148t57 148.5t151 56.5q93 0 150 -56.5t57 -148.5t-57 -148t-150 -56zM786 1674q62 0 100 39t38 102q0 64 -38 103t-100 39q-63 0 -100.5 -39t-37.5 -103q0 -63 37.5 -102t100.5 -39zM1407 1500v-830q0 -218 -74.5 -375t-213 -241t-333.5 -84
q-193 0 -332 84t-214 241t-75 375v830h132v-824q0 -184 59 -315.5t169 -202t261 -70.5q153 0 262 70.5t168 202t59 315.5v824h132z" />
    <glyph glyph-name="uring" unicode="&#x16f;" horiz-adv-x="1215" 
d="M594 1111q-93 0 -150 56t-57 148t57 148.5t150 56.5q94 0 150.5 -56.5t56.5 -148.5t-56.5 -148t-150.5 -56zM594 1174q63 0 100.5 39t37.5 102q0 64 -37.5 103t-100.5 39q-62 0 -100 -39t-38 -103q0 -63 38 -102t100 -39zM1050 0h-109l-4 188q-53 -101 -145.5 -154.5
t-221.5 -53.5q-198 0 -311.5 120.5t-113.5 331.5v568h123v-560q0 -160 87 -253.5t235 -93.5q153 0 245 98.5t92 262.5v546h123v-1000z" />
    <glyph glyph-name="Uhungarumlaut" unicode="&#x170;" 
d="M614 1667h-91l161 333h123zM982 1667h-91l161 333h123zM1407 1500v-830q0 -218 -74.5 -375t-213 -241t-333.5 -84q-193 0 -332 84t-214 241t-75 375v830h132v-824q0 -184 59 -315.5t169 -202t261 -70.5q153 0 262 70.5t168 202t59 315.5v824h132z" />
    <glyph glyph-name="uhungarumlaut" unicode="&#x171;" horiz-adv-x="1215" 
d="M448 1167h-90l161 333h123zM816 1167h-90l162 333h122zM1050 0h-109l-4 188q-53 -101 -145.5 -154.5t-221.5 -53.5q-198 0 -311.5 120.5t-113.5 331.5v568h123v-560q0 -160 87 -253.5t235 -93.5q153 0 245 98.5t92 262.5v546h123v-1000z" />
    <glyph glyph-name="Uogonek" unicode="&#x172;" 
d="M1407 1500v-830q0 -259 -104.5 -431.5t-294.5 -234.5q-77 -32 -125 -96t-48 -126q0 -49 34 -84.5t105 -41.5l-7 -72q-97 0 -152 51t-55 125q0 64 39.5 121.5t107.5 97.5q-28 -5 -58.5 -7t-62.5 -2q-194 0 -333 84t-213.5 241t-74.5 375v830h132v-824q0 -184 59 -315.5
t168.5 -202t261.5 -70.5t261.5 70.5t168.5 202t59 315.5v824h132z" />
    <glyph glyph-name="uogonek" unicode="&#x173;" horiz-adv-x="1215" 
d="M1050 0h-15q-74 -33 -119 -96t-45 -122q0 -49 34 -84.5t105 -41.5l-7 -72q-98 0 -152.5 51t-54.5 125q0 72 50.5 137t136.5 103h-42l-4 188q-53 -101 -145.5 -154.5t-221.5 -53.5q-198 0 -311.5 120.5t-113.5 331.5v568h123v-560q0 -160 87 -253.5t235 -93.5
q153 0 245 98.5t92 262.5v546h123v-1000z" />
    <glyph glyph-name="Wcircumflex" unicode="&#x174;" horiz-adv-x="2126" 
d="M1331 1667h-93l-175 274l-175 -274h-93l210 333h116zM1575 0h-108l-402 1262l-404 -1262h-108l-488 1500h139l403 -1263l403 1263h109l401 -1261l402 1261h139z" />
    <glyph glyph-name="wcircumflex" unicode="&#x175;" horiz-adv-x="1571" 
d="M1053 1167h-93l-175 274l-175 -274h-93l210 333h117zM1180 0h-140l-256 820l-255 -820h-140l-324 1000h130l263 -844l268 844h117l268 -844l264 844h131z" />
    <glyph glyph-name="Ycircumflex" unicode="&#x176;" horiz-adv-x="1376" 
d="M956 1667h-94l-174 274l-175 -274h-93l210 333h116zM753 0h-132v641l-586 859h160l492 -746l494 746h160l-588 -860v-640z" />
    <glyph glyph-name="ycircumflex" unicode="&#x177;" horiz-adv-x="1145" 
d="M865 1167h-94l-174 274l-175 -274h-94l211 333h116zM460 -500h-133l210 510l-472 990h136l395 -847l352 847h132z" />
    <glyph glyph-name="Ydieresis" unicode="&#x178;" horiz-adv-x="1377" 
d="M754 0h-132v641l-587 859h160l493 -746l494 746h160l-588 -860v-640zM906 1766q-34 0 -55.5 21.5t-21.5 55.5t21.5 55.5t55.5 21.5t55 -21.5t21 -55.5t-21 -55.5t-55 -21.5zM472 1766q-34 0 -55.5 21.5t-21.5 55.5t21.5 55.5t55.5 21.5t55 -21.5t21 -55.5t-21 -55.5
t-55 -21.5z" />
    <glyph glyph-name="Zacute" unicode="&#x179;" horiz-adv-x="1343" 
d="M721 1667h-91l161 333h123zM1228 0h-1113v104l930 1278h-890v118h1056v-114l-921 -1268h938v-118z" />
    <glyph glyph-name="zacute" unicode="&#x17a;" horiz-adv-x="1032" 
d="M565 1167h-91l162 333h122zM947 0h-862v73l656 816h-625v111h809v-65l-663 -824h685v-111z" />
    <glyph glyph-name="Zdotaccent" unicode="&#x17b;" horiz-adv-x="1343" 
d="M1228 0h-1113v104l929 1278h-889v118h1055v-114l-920 -1268h938v-118zM698 1754q-34 0 -55 21.5t-21 55.5t21 55t55 21t55.5 -21t21.5 -55t-21.5 -55.5t-55.5 -21.5z" />
    <glyph glyph-name="zdotaccent" unicode="&#x17c;" horiz-adv-x="1033" 
d="M516 1263q-32 0 -52.5 20t-20.5 52t20.5 52t52.5 20t52 -20t20 -52t-20 -52t-52 -20zM948 0h-863v73l656 816h-625v111h809v-65l-663 -824h686v-111z" />
    <glyph glyph-name="Zcaron" unicode="&#x17d;" horiz-adv-x="1343" 
d="M749 1667h-115l-211 333h94l174 -274l175 274h94zM1228 0h-1113v104l930 1278h-890v118h1056v-114l-921 -1268h938v-118z" />
    <glyph glyph-name="zcaron" unicode="&#x17e;" horiz-adv-x="1032" 
d="M593 1167h-116l-210 333h94l174 -274l175 274h93zM947 0h-862v73l656 816h-626v111h810v-65l-663 -824h685v-111z" />
    <glyph glyph-name="longs" unicode="&#x17f;" horiz-adv-x="639" 
d="M298 0h-133v1216q0 148 75.5 231t210.5 83q58 0 123 -17l-28 -110q-40 10 -72 10q-83 0 -129.5 -54t-46.5 -151v-1208z" />
    <glyph glyph-name="florin" unicode="&#x192;" horiz-adv-x="1025" 
d="M859 889h-282l-43 -618q-6 -89 -45 -157t-103 -106t-146 -38q-52 0 -105 16t-100 45l52 95q65 -45 135 -45q79 0 132.5 58t59.5 151l42 599h-217l8 111h217l16 232q7 90 45 156.5t102 104t145 37.5q53 0 107 -16t101 -46l-52 -94q-65 45 -136 45q-80 0 -132.5 -57.5
t-59.5 -152.5l-15 -209h282z" />
    <glyph glyph-name="Acaron" unicode="&#x1cd;" horiz-adv-x="1500" 
d="M194 0h-139l622 1500h146l622 -1500h-140l-177 433h-756zM419 551h662l-331 807zM808 1667h-116l-210 333h94l174 -274l175 274h93z" />
    <glyph glyph-name="acaron" unicode="&#x1ce;" horiz-adv-x="1092" 
d="M944 0h-105l-10 167q-50 -86 -140 -136.5t-205 -50.5q-106 0 -189.5 41.5t-131.5 114t-48 164.5q0 96 52 170t143 116.5t207 42.5q81 0 161 -21t143 -59v68q0 91 -40 156t-109.5 99.5t-157.5 34.5q-76 0 -152 -27.5t-142 -81.5l-44 106q82 57 175.5 86.5t186.5 29.5
q125 0 215.5 -51t140.5 -144.5t50 -222.5v-602zM504 93q87 0 157.5 37.5t113.5 106t46 157.5v34q-62 47 -134.5 71.5t-150.5 24.5q-127 0 -210.5 -61t-83.5 -157q0 -60 34.5 -108.5t94 -76.5t133.5 -28zM604 1167h-116l-210 333h94l174 -274l175 274h93z" />
    <glyph glyph-name="Scommaaccent" unicode="&#x218;" horiz-adv-x="1183" 
d="M95 141l65 102q63 -52 128.5 -87t134.5 -52t140 -17q110 0 193 38.5t130 106.5t47 157q0 95 -51.5 156.5t-132.5 104t-172 80.5q-73 31 -144 65.5t-129 80.5t-92.5 110t-34.5 155q0 115 58 202.5t160.5 136.5t237.5 49q90 0 179.5 -23t171.5 -68l-55 -109
q-70 40 -145.5 61.5t-149.5 21.5q-95 0 -167.5 -33t-113.5 -92t-41 -137q0 -85 48.5 -142t126 -98t164.5 -79q75 -33 149 -70t134.5 -86t97 -118t36.5 -166q0 -125 -63 -220t-175 -148t-261 -53q-130 0 -249.5 43t-224.5 128zM526 -465l-39 42q56 38 86.5 100t30.5 127
q0 62 -26 111l85 22q22 -60 22 -121q0 -90 -43 -166t-116 -115z" />
    <glyph glyph-name="scommaaccent" unicode="&#x219;" horiz-adv-x="880" 
d="M115 87l36 114q37 -34 82.5 -58t95 -37t100.5 -13q102 0 166 50t64 130q0 57 -32 93.5t-84 62.5t-110 49q-67 26 -131 58.5t-105.5 84.5t-41.5 137q0 80 39.5 138.5t111 91t165.5 32.5q135 0 266 -66l-38 -111q-31 19 -70 33.5t-80 22.5t-78 8q-85 0 -137 -40.5
t-52 -106.5q0 -43 23.5 -74.5t71.5 -58.5t120 -57q69 -28 135 -63.5t109.5 -90.5t43.5 -143q0 -86 -44.5 -152.5t-123 -103.5t-182.5 -37q-173 0 -320 107zM381 -465l-39 42q55 38 86 100t31 127q0 61 -26 111l85 22q21 -59 21 -121q0 -90 -43 -166t-115 -115z" />
    <glyph glyph-name="Tcommaaccent" unicode="&#x21a;" horiz-adv-x="1213" 
d="M672 0h-132v1382h-495v118h1123v-118h-496v-1382zM521 -465l-39 42q56 38 86.5 100t30.5 127q0 61 -26 111l85 22q21 -57 21 -121q0 -90 -43 -166t-115 -115z" />
    <glyph glyph-name="uni021B" unicode="&#x21b;" horiz-adv-x="824" 
d="M729 23q-91 -43 -181 -43q-83 0 -146 37t-97.5 104t-34.5 156v612h-175v111h180v250h118v-250h305v-111h-305v-590q0 -94 49.5 -151t131.5 -57q65 0 131 38zM359 -465l-39 42q56 38 86 100t30 127q0 61 -26 111l86 22q21 -57 21 -121q0 -90 -42.5 -166t-115.5 -115z" />
    <glyph glyph-name="dotlessj" unicode="&#x237;" horiz-adv-x="473" 
d="M-104 -509l2 99q15 -3 29.5 -4t28.5 -1q106 0 172 77t66 205v1133h124v-1137q0 -181 -85.5 -282t-234.5 -101q-24 0 -49.5 3t-52.5 8z" />
    <glyph glyph-name="circumflex" unicode="&#x2c6;" horiz-adv-x="866" 
d="M701 1167h-93l-175 274l-174 -274h-94l210 333h116z" />
    <glyph glyph-name="caron" unicode="&#x2c7;" horiz-adv-x="866" 
d="M491 1167h-116l-210 333h94l174 -274l175 274h93z" />
    <glyph glyph-name="macronmod" unicode="&#x2c9;" horiz-adv-x="969" 
d="M804 1310h-639v80h639v-80z" />
    <glyph glyph-name="breve" unicode="&#x2d8;" horiz-adv-x="942" 
d="M777 1500q0 -90 -39.5 -160t-108.5 -111t-158 -41t-158 41t-108.5 111t-39.5 160h83q0 -105 63 -173t160 -68t160 68t63 173h83z" />
    <glyph glyph-name="dotaccent" unicode="&#x2d9;" horiz-adv-x="475" 
d="M237 1254q-34 0 -55 21.5t-21 55.5t21 55t55 21t55.5 -21t21.5 -55t-21.5 -55.5t-55.5 -21.5z" />
    <glyph glyph-name="ring" unicode="&#x2da;" horiz-adv-x="745" 
d="M372 1111q-93 0 -150 56t-57 148t57 148.5t150 56.5q94 0 151 -56.5t57 -148.5t-57 -148t-151 -56zM372 1174q63 0 101 39t38 102q0 64 -38 103t-101 39q-62 0 -100 -39t-38 -103q0 -63 38 -102t100 -39z" />
    <glyph glyph-name="ogonek" unicode="&#x2db;" horiz-adv-x="578" 
d="M372 -416q-98 0 -152.5 51t-54.5 125q0 75 52.5 141t142.5 103h53q-77 -32 -125.5 -96t-48.5 -126q0 -49 34.5 -84.5t105.5 -41.5z" />
    <glyph glyph-name="tilde" unicode="&#x2dc;" horiz-adv-x="970" 
d="M805 1440q-10 -89 -57.5 -138t-122.5 -49q-50 0 -85 19t-72 49q-28 23 -56.5 40.5t-66.5 17.5q-98 0 -117 -116h-63q22 187 178 187q56 0 94 -21.5t70 -46.5q28 -22 56.5 -39t66.5 -17q93 0 112 114h63z" />
    <glyph glyph-name="hungarumlaut" unicode="&#x2dd;" horiz-adv-x="787" 
d="M156 1167h-91l162 333h122zM524 1167h-91l162 333h123z" />
    <glyph glyph-name="gravecomb" unicode="&#x300;" horiz-adv-x="484" 
d="M379 1167h-91l-193 333h121z" />
    <glyph glyph-name="acutecomb" unicode="&#x301;" horiz-adv-x="484" 
d="M195 1167h-90l162 333h122z" />
    <glyph glyph-name="circumflexcomb" unicode="&#x302;" horiz-adv-x="866" 
d="M701 1167h-93l-175 274l-174 -274h-94l210 333h116z" />
    <glyph glyph-name="tildecomb" unicode="&#x303;" horiz-adv-x="970" 
d="M805 1440q-10 -89 -57.5 -138t-122.5 -49q-50 0 -85 19t-72 49q-28 23 -56.5 40.5t-66.5 17.5q-98 0 -117 -116h-63q22 187 178 187q56 0 94 -21.5t70 -46.5q28 -22 56.5 -39t66.5 -17q93 0 112 114h63z" />
    <glyph glyph-name="macroncomb" unicode="&#x304;" horiz-adv-x="969" 
d="M804 1305h-639v80h639v-80z" />
    <glyph glyph-name="brevecomb" unicode="&#x306;" horiz-adv-x="942" 
d="M777 1500q0 -90 -39.5 -160t-108.5 -111t-158 -41t-158 41t-108.5 111t-39.5 160h83q0 -105 63 -173t160 -68t160 68t63 173h83z" />
    <glyph glyph-name="dotaccentcomb" unicode="&#x307;" horiz-adv-x="475" 
d="M237 1254q-34 0 -55 21.5t-21 55.5t21 55t55 21t55.5 -21t21.5 -55t-21.5 -55.5t-55.5 -21.5z" />
    <glyph glyph-name="dieresiscomb" unicode="&#x308;" horiz-adv-x="889" 
d="M662 1266q-34 0 -55.5 21.5t-21.5 55.5t21.5 55.5t55.5 21.5t55 -21.5t21 -55.5t-21 -55.5t-55 -21.5zM228 1266q-34 0 -55.5 21.5t-21.5 55.5t21.5 55.5t55.5 21.5t55 -21.5t21 -55.5t-21 -55.5t-55 -21.5z" />
    <glyph glyph-name="ringcomb" unicode="&#x30a;" horiz-adv-x="745" 
d="M372 1111q-93 0 -150 56t-57 148t57 148.5t150 56.5q94 0 151 -56.5t57 -148.5t-57 -148t-151 -56zM372 1174q63 0 101 39t38 102q0 64 -38 103t-101 39q-62 0 -100 -39t-38 -103q0 -63 38 -102t100 -39z" />
    <glyph glyph-name="hungarumlautcomb" unicode="&#x30b;" horiz-adv-x="787" 
d="M156 1167h-91l162 333h122zM524 1167h-91l162 333h123z" />
    <glyph glyph-name="caroncomb" unicode="&#x30c;" horiz-adv-x="866" 
d="M491 1167h-116l-210 333h94l174 -274l175 274h93z" />
    <glyph glyph-name="commaturnedabovecomb" unicode="&#x312;" horiz-adv-x="455" 
 />
    <glyph glyph-name="commaaccent" unicode="&#x326;" horiz-adv-x="527" 
d="M204 -465l-39 42q56 38 86 100t30 127q0 62 -25 111l85 22q21 -57 21 -121q0 -90 -42.5 -166t-115.5 -115z" />
    <glyph glyph-name="cedillacomb" unicode="&#x327;" horiz-adv-x="621" 
d="M135 -390l27 69q48 -19 98 -19q62 0 103 29t41 74q0 46 -43 75t-108 29q-6 0 -13.5 -0.5t-14.5 -1.5l55 142h67l-37 -92q77 -4 124.5 -46t47.5 -109q0 -75 -60 -123.5t-156 -48.5q-63 0 -131 22z" />
    <glyph glyph-name="ogonekcomb" unicode="&#x328;" horiz-adv-x="578" 
d="M372 -416q-98 0 -152.5 51t-54.5 125q0 75 52.5 141t142.5 103h53q-77 -32 -125.5 -96t-48.5 -126q0 -49 34.5 -84.5t105.5 -41.5z" />
    <glyph glyph-name="uni0394" unicode="&#x394;" horiz-adv-x="1497" 
d="M1442 0h-1387l612 1500h163zM244 117h1008l-504 1252z" />
    <glyph glyph-name="uni03A9" unicode="&#x3a9;" horiz-adv-x="1760" 
d="M1675 0h-620v59q129 51 226.5 156.5t152 249t54.5 304.5q0 191 -76.5 335.5t-213 226t-318.5 81.5q-180 0 -317.5 -81.5t-214.5 -226.5t-77 -336q0 -161 55 -304t152.5 -249t226.5 -156v-59h-620v118h403q-108 70 -187.5 175t-122 234.5t-42.5 274.5q0 217 94 381
t261.5 255.5t388.5 91.5q222 0 389 -92t260.5 -255.5t93.5 -380.5q0 -145 -42.5 -275t-121.5 -234.5t-187 -175.5h403v-117z" />
    <glyph glyph-name="pi" unicode="&#x3c0;" horiz-adv-x="1298" 
d="M1205 93q-27 -52 -74.5 -82.5t-103.5 -30.5q-55 0 -100 28t-71 76.5t-26 108.5v704h-373q4 -97 6 -194.5t2 -200.5q0 -125 -3 -251t-10 -251h-123q7 126 10 249.5t3 248.5q0 102 -2 201.5t-6 197.5h-59q-119 0 -220 -71l-30 95q113 79 253 79h927v-103h-250v-705
q0 -59 30.5 -96.5t77.5 -37.5q64 0 102 63z" />
    <glyph glyph-name="Wgrave" unicode="&#x1e80;" horiz-adv-x="2126" 
d="M1088 1667h-92l-193 333h123zM1575 0h-108l-402 1262l-403 -1262h-109l-488 1500h139l403 -1263l403 1263h109l402 -1261l401 1261h139z" />
    <glyph glyph-name="wgrave" unicode="&#x1e81;" horiz-adv-x="1571" 
d="M811 1167h-92l-193 333h123zM1180 0h-140l-256 820l-254 -820h-140l-325 1000h130l263 -844l269 844h116l268 -844l264 844h131z" />
    <glyph glyph-name="Wacute" unicode="&#x1e82;" horiz-adv-x="2126" 
d="M1139 1667h-91l162 333h122zM1575 0h-108l-402 1262l-403 -1262h-109l-488 1500h139l403 -1263l403 1263h109l402 -1261l401 1261h139z" />
    <glyph glyph-name="wacute" unicode="&#x1e83;" horiz-adv-x="1571" 
d="M858 1167h-91l161 333h123zM1180 0h-140l-256 820l-254 -820h-140l-325 1000h130l263 -844l269 844h116l268 -844l264 844h131z" />
    <glyph glyph-name="Wdieresis" unicode="&#x1e84;" horiz-adv-x="2125" 
d="M1574 0h-108l-402 1262l-403 -1262h-108l-488 1500h138l404 -1263l403 1263h108l402 -1261l402 1261h138zM1281 1766q-34 0 -55.5 21.5t-21.5 55.5t21.5 55.5t55.5 21.5t55 -21.5t21 -55.5t-21 -55.5t-55 -21.5zM847 1766q-34 0 -55.5 21.5t-21.5 55.5t21.5 55.5
t55.5 21.5t55 -21.5t21 -55.5t-21 -55.5t-55 -21.5z" />
    <glyph glyph-name="wdieresis" unicode="&#x1e85;" horiz-adv-x="1571" 
d="M1181 0h-141l-255 820l-255 -820h-140l-325 1000h130l264 -844l268 844h116l268 -844l265 844h130zM1003 1266q-34 0 -55.5 21.5t-21.5 55.5t21.5 55.5t55.5 21.5t55 -21.5t21 -55.5t-21 -55.5t-55 -21.5zM569 1266q-34 0 -55.5 21.5t-21.5 55.5t21.5 55.5t55.5 21.5
t55 -21.5t21 -55.5t-21 -55.5t-55 -21.5z" />
    <glyph glyph-name="Germandbls" unicode="&#x1e9e;" horiz-adv-x="1316" 
d="M298 0h-133v1018q0 151 60.5 266.5t168 180.5t247.5 65q109 0 203 -40.5t160.5 -114t94.5 -171.5q8 -26 4.5 -53.5t-18.5 -43.5l-311 -359l-7 40q128 0 229.5 -52.5t159.5 -143.5t58 -207q0 -122 -62.5 -215.5t-173.5 -146.5t-255 -53q-65 0 -129.5 12.5t-131.5 38.5
l41 112q63 -24 112.5 -34.5t98.5 -10.5q110 0 192.5 38t129 106t46.5 158q0 93 -50.5 163.5t-139.5 109.5t-204 36l-42 77l327 386q-22 77 -69.5 133t-114.5 86.5t-149 30.5q-105 0 -182 -50.5t-119 -144t-42 -221.5z" />
    <glyph glyph-name="Ygrave" unicode="&#x1ef2;" horiz-adv-x="1377" 
d="M754 0h-132v641l-587 859h160l493 -746l494 746h160l-588 -860v-640zM831 1667h-92l-192 333h121z" />
    <glyph glyph-name="ygrave" unicode="&#x1ef3;" horiz-adv-x="1145" 
d="M460 -500h-134l211 510l-472 990h136l395 -847l351 847h133zM715 1167h-91l-193 333h121z" />
    <glyph glyph-name="uni2002" unicode="&#x2002;" horiz-adv-x="1967" 
 />
    <glyph glyph-name="uni2009" unicode="&#x2009;" horiz-adv-x="1283" 
 />
    <glyph glyph-name="uni200B" unicode="&#x200b;" horiz-adv-x="943" 
 />
    <glyph glyph-name="endash" unicode="&#x2013;" horiz-adv-x="1350" 
d="M1185 453h-1020v98h1020v-98z" />
    <glyph glyph-name="emdash" unicode="&#x2014;" horiz-adv-x="2370" 
d="M2205 453h-2040v98h2040v-98z" />
    <glyph glyph-name="quoteleft" unicode="&#x2018;" horiz-adv-x="526" 
d="M267 1070h-102l121 450h82z" />
    <glyph glyph-name="quoteright" unicode="&#x2019;" horiz-adv-x="526" 
d="M240 1070h-75l101 450h95z" />
    <glyph glyph-name="quotesinglbase" unicode="&#x201a;" horiz-adv-x="464" 
d="M217 -240h-92l88 420h116z" />
    <glyph glyph-name="quotedblleft" unicode="&#x201c;" horiz-adv-x="876" 
d="M260 1070h-95l121 450h75zM610 1070h-95l121 450h75z" />
    <glyph glyph-name="quotedblright" unicode="&#x201d;" horiz-adv-x="875" 
d="M589 1070h-74l101 450h94zM240 1070h-75l101 450h95z" />
    <glyph glyph-name="quotedblbase" unicode="&#x201e;" horiz-adv-x="818" 
d="M571 -240h-92l87 420h117zM217 -240h-92l88 420h116z" />
    <glyph glyph-name="dagger" unicode="&#x2020;" horiz-adv-x="1134" 
d="M633 0h-132l17 939l-353 -16v118l353 -16l-17 475h132l-17 -475l353 16v-118l-353 16z" />
    <glyph glyph-name="daggerdbl" unicode="&#x2021;" horiz-adv-x="1134" 
d="M633 0h-132l16 477l-352 -18v111l352 -19l-3 195l3 203l-352 -19v111l352 -18l-16 477h132l-17 -477l353 18v-111l-353 19l3 -203l-3 -195l353 19v-111l-353 18z" />
    <glyph glyph-name="bullet" unicode="&#x2022;" horiz-adv-x="500" 
d="M250 565q-59 0 -97 37.5t-38 97.5t38 97.5t97 37.5q60 0 97.5 -37.5t37.5 -97.5t-37.5 -97.5t-97.5 -37.5z" />
    <glyph glyph-name="ellipsis" unicode="&#x2026;" horiz-adv-x="1313" 
d="M226 -20q-31 0 -51 20t-20 51t20 51.5t51 20.5q32 0 52 -20.5t20 -51.5t-20 -51t-52 -20zM656 -20q-31 0 -51 20t-20 51t20 51.5t51 20.5q32 0 52 -20.5t20 -51.5t-20 -51t-52 -20zM1086 -20q-31 0 -51 20t-20 51t20 51.5t51 20.5q32 0 52 -20.5t20 -51.5t-20 -51
t-52 -20z" />
    <glyph glyph-name="perthousand" unicode="&#x2030;" horiz-adv-x="2513" 
d="M424 873q-147 0 -238 89t-91 234q0 146 91 235t238 89q149 0 239 -89t90 -235q0 -145 -90.5 -234t-238.5 -89zM421 0h-114l967 1500h114zM424 954q105 0 169 66.5t64 175.5q0 110 -64 176.5t-169 66.5q-104 0 -168.5 -66.5t-64.5 -176.5q0 -109 64.5 -175.5t168.5 -66.5z
M2089 -13q-147 0 -238 89t-91 234q0 146 91 235t238 89q149 0 239 -89t90 -235q0 -145 -90.5 -234t-238.5 -89zM1268 -20q-148 0 -238.5 89t-90.5 234q0 146 90.5 235t238.5 89t238.5 -89t90.5 -235q0 -145 -90.5 -234t-238.5 -89zM2089 69q105 0 169 66.5t64 174.5
q0 110 -64 176.5t-169 66.5q-104 0 -168.5 -66.5t-64.5 -176.5q0 -109 64.5 -175t168.5 -66zM1268 61q104 0 168.5 66.5t64.5 175.5q0 110 -64 176.5t-169 66.5t-169 -66.5t-64 -176.5q0 -109 64 -175.5t169 -66.5z" />
    <glyph glyph-name="minute" unicode="&#x2032;" horiz-adv-x="436" 
d="M257 1085h-78l-14 435h106z" />
    <glyph glyph-name="second" unicode="&#x2033;" horiz-adv-x="754" 
d="M257 1085h-78l-14 435h106zM575 1085h-78l-14 435h106z" />
    <glyph glyph-name="guilsinglleft" unicode="&#x2039;" horiz-adv-x="710" 
d="M545 111h-124l-336 395l336 395h124l-339 -395z" />
    <glyph glyph-name="guilsinglright" unicode="&#x203a;" horiz-adv-x="710" 
d="M288 111h-123l338 395l-338 395h123l337 -395z" />
    <glyph glyph-name="fraction" unicode="&#x2044;" horiz-adv-x="1155" 
d="M117 0h-92l1019 1540h86z" />
    <glyph glyph-name="four.superior" unicode="&#x2074;" horiz-adv-x="718" 
d="M545 730h-81v193h-379v64l392 513h68v-504h88v-73h-88v-193zM464 996v382l-293 -382h293z" />
    <glyph glyph-name="franc" unicode="&#x20a3;" horiz-adv-x="1271" 
d="M840 345h-484v-345h-132v345h-189v78h189v1077h892v-118h-760v-559h720v-118h-720v-282h484v-78z" />
    <glyph glyph-name="uni20A8" unicode="&#x20a8;" horiz-adv-x="1213" 
d="M1048 1419h-387q93 -48 150 -126t66 -175h170v-68h-170q-7 -100 -65 -179.5t-154.5 -130.5t-221.5 -64l433 -676h-141l-424 672h-139v81h161q114 0 204 38t145.5 105t65.5 154h-576v68h576q-8 87 -62 155t-142.5 107t-201.5 39h-170v81h883v-81z" />
    <glyph glyph-name="Euro" unicode="&#x20ac;" horiz-adv-x="1109" 
d="M878 857h-501q-4 -26 -6 -53t-2 -54t2 -53.5t6 -53.5h477l-9 -71h-456q34 -145 117.5 -254t208.5 -169.5t279 -60.5v-118q-193 0 -348 75t-257 211t-137 316h-167l8 71h147q-3 30 -4.5 54.5t-1.5 55.5q0 28 1 51.5t5 52.5h-155l8 71h159q35 181 137 316.5t257 210.5
t348 75v-118q-154 0 -278.5 -60.5t-208.5 -169t-117 -254.5h496z" />
    <glyph glyph-name="uni2113" unicode="&#x2113;" horiz-adv-x="1023" 
d="M876 282q-7 -140 -87.5 -226t-205.5 -86q-89 0 -156 45.5t-104.5 127t-37.5 189.5v233q-50 -21 -104.5 -42t-113.5 -41l-32 109q69 23 132 47.5t118 50.5v513q0 99 37 172.5t104 114.5t155 41t152 -39t98.5 -111t34.5 -170q0 -174 -115.5 -322t-341.5 -266v-277
q0 -123 47.5 -192.5t129.5 -69.5q78 0 130.5 60t54.5 153zM409 752q167 96 251.5 210.5t84.5 244.5q0 98 -43.5 154t-119.5 56q-79 0 -126 -61t-47 -164v-440z" />
    <glyph glyph-name="trademark" unicode="&#x2122;" horiz-adv-x="1576" 
d="M354 780h-79v650h-230v70h539v-70h-230v-650zM1411 780h-79v595l-244 -474h-68l-243 473v-594h-78v720h93l262 -516l263 516h94v-720z" />
    <glyph glyph-name="estimated" unicode="&#x212e;" horiz-adv-x="1192" 
d="M1061 132q-96 -78 -197.5 -115t-216.5 -37q-163 0 -290 68.5t-199.5 188t-72.5 273.5q0 148 66.5 263t182.5 181t265 66t263.5 -65.5t179.5 -180.5t65 -264v-23h-813v-241q0 -59 48.5 -109t129.5 -79.5t178 -29.5q205 0 381 145zM898 535v238q0 55 -41 100t-110 72
t-151 27t-150.5 -27t-110 -72t-41.5 -100v-238h604z" />
    <glyph glyph-name="arrowup" unicode="&#x2191;" horiz-adv-x="1058" 
d="M784 667h-73l-165 729l-90 -1063h-71l113 1088l-150 -254l51 -167l205 333l-42 142z" />
    <glyph glyph-name="arrowdown" unicode="&#x2193;" horiz-adv-x="1058" 
d="M784 833l-222 -808l42 142l-205 333l-51 -167l150 -254l-113 1088h71l90 -1063l165 729h73z" />
    <glyph glyph-name="partialdiff" unicode="&#x2202;" horiz-adv-x="1213" 
d="M313 1202l-95 37q35 130 139.5 210.5t240.5 80.5q116 0 212.5 -59t167.5 -166.5t110.5 -252.5t39.5 -318q0 -230 -70 -402t-196.5 -267t-297.5 -95q-132 0 -233 56t-158.5 154.5t-57.5 225.5q0 150 78 267t213.5 184t306.5 67q70 0 141 -12t139 -37q-18 160 -74 282.5
t-140.5 192t-188.5 69.5q-99 0 -175 -60t-102 -157zM1002 766q-136 54 -273 54q-138 0 -247 -52.5t-171 -143.5t-62 -207q0 -96 42 -170t116.5 -116.5t171.5 -42.5q115 0 195.5 58t131 155.5t73.5 218.5t23 246z" />
    <glyph glyph-name="Delta" unicode="&#x2206;" horiz-adv-x="1226" 
d="M1093 0h-961l-47 83l463 1047h130l463 -1047zM222 111h781l-390 892z" />
    <glyph glyph-name="product" unicode="&#x220f;" horiz-adv-x="1753" 
d="M1450 -400h-132v1782h-884v-1782h-132v1782l-207 10v108h1563v-108l-208 -10v-1782z" />
    <glyph glyph-name="summation" unicode="&#x2211;" horiz-adv-x="1338" 
d="M1183 0h-1018v92l488 658l-488 659v91h1018v-117h-838l451 -633l-450 -633h837v-117z" />
    <glyph glyph-name="minus" unicode="&#x2212;" horiz-adv-x="1130" 
d="M965 455h-800v98h800v-98z" />
    <glyph glyph-name="divisionslash" unicode="&#x2215;" horiz-adv-x="827" 
d="M154 -20h-119l638 1540h119z" />
    <glyph glyph-name="uni2219" unicode="&#x2219;" horiz-adv-x="453" 
d="M226 459q-31 0 -51 20t-20 51t20 51t51 20q32 0 52 -20t20 -51t-20 -51t-52 -20z" />
    <glyph glyph-name="radical" unicode="&#x221a;" horiz-adv-x="1170" 
d="M689 0h-132l-283 684h-139v88h216l257 -636l316 1424h111z" />
    <glyph glyph-name="infinity" unicode="&#x221e;" horiz-adv-x="1991" 
d="M1476 84q-101 0 -181.5 38t-150 110t-139.5 175q-56 -82 -122 -156t-153 -120.5t-209 -46.5q-127 0 -225.5 52.5t-154.5 144t-56 209.5q0 119 56.5 210.5t155.5 143t228 51.5q102 0 183.5 -36t151.5 -104.5t136 -164.5q55 80 119.5 149.5t150.5 112.5t204 43
q128 0 226.5 -52t154 -143.5t55.5 -210.5q0 -118 -55 -209t-152 -143.5t-223 -52.5zM1110 382q-10 66 -20.5 120t-33 98.5t-67.5 80.5q-59 36 -121 38.5t-115.5 -24.5t-89.5 -83q-38 -53 -42.5 -110.5t16.5 -108t57 -81.5q82 -31 148.5 -32t130.5 25t137 77zM1297 300
q36 31 57.5 82.5t18.5 111.5t-42 114q-36 54 -88.5 79.5t-111.5 21.5t-115 -40q-58 -36 -85.5 -88.5t-35 -108.5t-4.5 -103q72 -51 135 -77t128 -24.5t143 32.5z" />
    <glyph glyph-name="integral" unicode="&#x222b;" horiz-adv-x="715" 
d="M65 -320v117q137 0 203 79t66 231l-85 1291q0 206 99.5 314t301.5 108v-117q-136 0 -202.5 -77.5t-66.5 -227.5l85 -1291q0 -209 -99.5 -318t-301.5 -109z" />
    <glyph glyph-name="approxequal" unicode="&#x2248;" horiz-adv-x="1372" 
d="M1207 740q-140 -148 -276 -148q-51 0 -106 20t-133 60q-59 30 -119.5 56t-126.5 26q-137 0 -281 -144v97q146 143 285 143q53 0 109 -20t135 -61q59 -30 118.5 -55t122.5 -25q135 0 272 148v-97zM1207 264q-141 -149 -276 -149q-51 0 -106 20.5t-133 59.5
q-59 31 -119.5 56.5t-126.5 25.5q-137 0 -281 -144v97q147 144 283 144q66 0 126.5 -25.5t119.5 -56.5q78 -40 133 -60t106 -20q137 0 274 149v-97z" />
    <glyph glyph-name="notequal" unicode="&#x2260;" horiz-adv-x="1285" 
d="M452 -78h-83l110 266h-314v102h356l160 385h-516v102h558l110 265h83l-110 -265h314v-102h-356l-160 -385h516v-102h-558z" />
    <glyph glyph-name="lessequal" unicode="&#x2264;" horiz-adv-x="1273" 
d="M1107 220l-942 471v85l942 464v-112l-823 -395l823 -401v-112zM1108 0h-943v102h943v-102z" />
    <glyph glyph-name="greaterequal" unicode="&#x2265;" horiz-adv-x="1273" 
d="M166 220v112l823 401l-823 395v112l942 -464v-85zM1108 0h-943v102h943v-102z" />
    <glyph glyph-name="lozenge" unicode="&#x25ca;" horiz-adv-x="1185" 
d="M639 -20h-95l-459 680l460 681h96l459 -680zM591 100l372 561l-370 559l-372 -560z" />
    <glyph glyph-name="uniFEFF" unicode="&#xfeff;" horiz-adv-x="1967" 
 />
    </font>
</defs>
</svg>
